  0
SECTION
  2
HEADER
  9
$ACADVER
  1
AC1015
  9
$ACADMAINTVER
 70
    18
  9
$DWGCODEPAGE
  3
ANSI_1252
  9
$INSBASE
 10
0.0
 20
0.0
 30
0.0
  9
$EXTMIN
 10
0.0
 20
0.0
 30
0.0
  9
$EXTMAX
 10
297.0
 20
210.0
 30
0.0
  9
$LIMMIN
 10
0.0
 20
0.0
  9
$LIMMAX
 10
297.0
 20
210.0
  9
$ORTHOMODE
 70
     0
  9
$REGENMODE
 70
     1
  9
$FILLMODE
 70
     1
  9
$QTEXTMODE
 70
     0
  9
$MIRRTEXT
 70
     0
  9
$LTSCALE
 40
1.0
  9
$ATTMODE
 70
     1
  9
$TEXTSIZE
 40
0.2
  9
$TRACEWID
 40
0.05
  9
$TEXTSTYLE
  7
Standard
  9
$CLAYER
  8
0
  9
$CELTYPE
  6
ByLayer
  9
$CECOLOR
 62
   256
  9
$CELTSCALE
 40
1.0
  9
$DISPSILH
 70
     0
  9
$DIMSCALE
 40
1.0
  9
$DIMASZ
 40
1.799999999999999
  9
$DIMEXO
 40
0.0625
  9
$DIMDLI
 40
0.38
  9
$DIMRND
 40
0.0
  9
$DIMDLE
 40
0.0
  9
$DIMEXE
 40
0.18
  9
$DIMTP
 40
0.0
  9
$DIMTM
 40
0.0
  9
$DIMTXT
 40
0.3499999940395355
  9
$DIMCEN
 40
0.09
  9
$DIMTSZ
 40
0.0
  9
$DIMTOL
 70
     0
  9
$DIMLIM
 70
     0
  9
$DIMTIH
 70
     1
  9
$DIMTOH
 70
     1
  9
$DIMSE1
 70
     0
  9
$DIMSE2
 70
     0
  9
$DIMTAD
 70
     0
  9
$DIMZIN
 70
     0
  9
$DIMBLK
  1

  9
$DIMASO
 70
     1
  9
$DIMSHO
 70
     1
  9
$DIMPOST
  1

  9
$DIMAPOST
  1

  9
$DIMALT
 70
     0
  9
$DIMALTD
 70
     2
  9
$DIMALTF
 40
25.4
  9
$DIMLFAC
 40
1.0
  9
$DIMTOFL
 70
     0
  9
$DIMTVP
 40
0.0
  9
$DIMTIX
 70
     0
  9
$DIMSOXD
 70
     0
  9
$DIMSAH
 70
     0
  9
$DIMBLK1
  1

  9
$DIMBLK2
  1

  9
$DIMSTYLE
  2
Standard
  9
$DIMCLRD
 70
     0
  9
$DIMCLRE
 70
     0
  9
$DIMCLRT
 70
     0
  9
$DIMTFAC
 40
1.0
  9
$DIMGAP
 40
0.09
  9
$DIMJUST
 70
     0
  9
$DIMSD1
 70
     0
  9
$DIMSD2
 70
     0
  9
$DIMTOLJ
 70
     1
  9
$DIMTZIN
 70
     0
  9
$DIMALTZ
 70
     0
  9
$DIMALTTZ
 70
     0
  9
$DIMUPT
 70
     0
  9
$DIMDEC
 70
     4
  9
$DIMTDEC
 70
     4
  9
$DIMALTU
 70
     2
  9
$DIMALTTD
 70
     2
  9
$DIMTXSTY
  7
Standard
  9
$DIMAUNIT
 70
     0
  9
$DIMADEC
 70
     0
  9
$DIMALTRND
 40
0.0
  9
$DIMAZIN
 70
     0
  9
$DIMDSEP
 70
    46
  9
$DIMATFIT
 70
     3
  9
$DIMFRAC
 70
     0
  9
$DIMLDRBLK
  1

  9
$DIMLUNIT
 70
     2
  9
$DIMLWD
 70
    -2
  9
$DIMLWE
 70
    -2
  9
$DIMTMOVE
 70
     0
  9
$LUNITS
 70
     2
  9
$LUPREC
 70
     4
  9
$SKETCHINC
 40
0.1
  9
$FILLETRAD
 40
0.0
  9
$AUNITS
 70
     0
  9
$AUPREC
 70
     0
  9
$MENU
  1
.
  9
$ELEVATION
 40
0.0
  9
$PELEVATION
 40
0.0
  9
$THICKNESS
 40
0.0
  9
$LIMCHECK
 70
     0
  9
$CHAMFERA
 40
0.0
  9
$CHAMFERB
 40
0.0
  9
$CHAMFERC
 40
0.0
  9
$CHAMFERD
 40
0.0
  9
$SKPOLY
 70
     0
  9
$TDCREATE
 40
2454113.496833090
  9
$TDUCREATE
 40
2454113.455166424
  9
$TDUPDATE
 40
2454113.496833090
  9
$TDUUPDATE
 40
2454113.455166424
  9
$TDINDWG
 40
0.0000772222
  9
$TDUSRTIMER
 40
0.0000772222
  9
$USRTIMER
 70
     1
  9
$ANGBASE
 50
0.0
  9
$ANGDIR
 70
     0
  9
$PDMODE
 70
     0
  9
$PDSIZE
 40
0.0
  9
$PLINEWID
 40
0.0
  9
$SPLFRAME
 70
     0
  9
$SPLINETYPE
 70
     6
  9
$SPLINESEGS
 70
     8
  9
$HANDSEED
  5
BE8
  9
$SURFTAB1
 70
     6
  9
$SURFTAB2
 70
     6
  9
$SURFTYPE
 70
     6
  9
$SURFU
 70
     6
  9
$SURFV
 70
     6
  9
$UCSBASE
  2

  9
$UCSNAME
  2

  9
$UCSORG
 10
0.0
 20
0.0
 30
0.0
  9
$UCSXDIR
 10
1.0
 20
0.0
 30
0.0
  9
$UCSYDIR
 10
0.0
 20
1.0
 30
0.0
  9
$UCSORTHOREF
  2

  9
$UCSORTHOVIEW
 70
     0
  9
$UCSORGTOP
 10
0.0
 20
0.0
 30
0.0
  9
$UCSORGBOTTOM
 10
0.0
 20
0.0
 30
0.0
  9
$UCSORGLEFT
 10
0.0
 20
0.0
 30
0.0
  9
$UCSORGRIGHT
 10
0.0
 20
0.0
 30
0.0
  9
$UCSORGFRONT
 10
0.0
 20
0.0
 30
0.0
  9
$UCSORGBACK
 10
0.0
 20
0.0
 30
0.0
  9
$PUCSBASE
  2

  9
$PUCSNAME
  2

  9
$PUCSORG
 10
0.0
 20
0.0
 30
0.0
  9
$PUCSXDIR
 10
1.0
 20
0.0
 30
0.0
  9
$PUCSYDIR
 10
0.0
 20
1.0
 30
0.0
  9
$PUCSORTHOREF
  2

  9
$PUCSORTHOVIEW
 70
     0
  9
$PUCSORGTOP
 10
0.0
 20
0.0
 30
0.0
  9
$PUCSORGBOTTOM
 10
0.0
 20
0.0
 30
0.0
  9
$PUCSORGLEFT
 10
0.0
 20
0.0
 30
0.0
  9
$PUCSORGRIGHT
 10
0.0
 20
0.0
 30
0.0
  9
$PUCSORGFRONT
 10
0.0
 20
0.0
 30
0.0
  9
$PUCSORGBACK
 10
0.0
 20
0.0
 30
0.0
  9
$USERI1
 70
     0
  9
$USERI2
 70
     0
  9
$USERI3
 70
     0
  9
$USERI4
 70
     0
  9
$USERI5
 70
     0
  9
$USERR1
 40
0.0
  9
$USERR2
 40
0.0
  9
$USERR3
 40
0.0
  9
$USERR4
 40
0.0
  9
$USERR5
 40
0.0
  9
$WORLDVIEW
 70
     1
  9
$SHADEDGE
 70
     3
  9
$SHADEDIF
 70
    70
  9
$TILEMODE
 70
     1
  9
$MAXACTVP
 70
    64
  9
$PINSBASE
 10
0.0
 20
0.0
 30
0.0
  9
$PLIMCHECK
 70
     0
  9
$PEXTMIN
 10
0.0
 20
0.0
 30
0.0
  9
$PEXTMAX
 10
297.0
 20
210.0
 30
0.0
  9
$PLIMMIN
 10
0.0
 20
0.0
  9
$PLIMMAX
 10
297.0
 20
210.0
  9
$UNITMODE
 70
     0
  9
$VISRETAIN
 70
     1
  9
$PLINEGEN
 70
     0
  9
$PSLTSCALE
 70
     1
  9
$TREEDEPTH
 70
  3020
  9
$CMLSTYLE
  2
Standard
  9
$CMLJUST
 70
     0
  9
$CMLSCALE
 40
1.0
  9
$PROXYGRAPHICS
 70
     1
  9
$MEASUREMENT
 70
     1
  9
$CELWEIGHT
370
    -1
  9
$ENDCAPS
280
     0
  9
$JOINSTYLE
280
     0
  9
$LWDISPLAY
290
     0
  9
$INSUNITS
 70
     0
  9
$HYPERLINKBASE
  1

  9
$STYLESHEET
  1

  9
$XEDIT
290
     1
  9
$CEPSNTYPE
380
     0
  9
$PSTYLEMODE
290
     1
  9
$FINGERPRINTGUID
  2
{118176FA-415E-48F5-9401-1531F9D5724C}
  9
$VERSIONGUID
  2
{4D9FB220-B36E-46E7-8CE3-08EA1F579B3F}
  9
$EXTNAMES
290
     1
  9
$PSVPSCALE
 40
0.0
  9
$OLESTARTUP
290
     0
  0
ENDSEC
  0
SECTION
  2
CLASSES
  0
CLASS
  1
ACDBDICTIONARYWDFLT
  2
AcDbDictionaryWithDefault
  3
ObjectDBX Classes
 90
        0
280
     0
281
     0
  0
CLASS
  1
MATERIAL
  2
AcDbMaterial
  3
ObjectDBX Classes
 90
     1024
280
     0
281
     0
  0
CLASS
  1
VISUALSTYLE
  2
AcDbVisualStyle
  3
ObjectDBX Classes
 90
     4095
280
     0
281
     0
  0
CLASS
  1
TABLESTYLE
  2
AcDbTableStyle
  3
ObjectDBX Classes
 90
     4095
280
     0
281
     0
  0
CLASS
  1
DICTIONARYVAR
  2
AcDbDictionaryVar
  3
ObjectDBX Classes
 90
        0
280
     0
281
     0
  0
CLASS
  1
ACDBPLACEHOLDER
  2
AcDbPlaceHolder
  3
ObjectDBX Classes
 90
        0
280
     0
281
     0
  0
CLASS
  1
LAYOUT
  2
AcDbLayout
  3
ObjectDBX Classes
 90
        0
280
     0
281
     0
  0
ENDSEC
  0
SECTION
  2
TABLES
  0
TABLE
  2
VPORT
  5
8
330
0
100
AcDbSymbolTable
 70
     1
  0
VPORT
  5
28
330
8
100
AcDbSymbolTableRecord
100
AcDbViewportTableRecord
  2
*Active
 70
     0
 10
0.0
 20
0.0
 11
1.0
 21
1.0
 12
148.5
 22
105.0
 13
0.0
 23
0.0
 14
1.0
 24
1.0
 15
0.0
 25
0.0
 16
0.0
 26
0.0
 36
1.0
 17
0.0
 27
0.0
 37
0.0
 40
210.0
 41
1.414285714285714
 42
50.0
 43
0.0
 44
0.0
 50
0.0
 51
0.0
 71
     0
 72
   100
 73
     1
 74
     1
 75
     0
 76
     0
 77
     0
 78
     0
281
     0
 65
     1
110
0.0
120
0.0
130
0.0
111
1.0
121
0.0
131
0.0
112
0.0
122
1.0
132
0.0
 79
     0
146
0.0
  0
ENDTAB
  0
TABLE
  2
LTYPE
  5
5
330
0
100
AcDbSymbolTable
 70
    59
  0
LTYPE
  5
29
330
5
100
AcDbSymbolTableRecord
100
AcDbLinetypeTableRecord
  2
ByBlock
 70
     0
  3

 72
    65
 73
     0
 40
0.0
  0
LTYPE
  5
2A
330
5
100
AcDbSymbolTableRecord
100
AcDbLinetypeTableRecord
  2
ByLayer
 70
     0
  3

 72
    65
 73
     0
 40
0.0
  0
LTYPE
  5
2B
330
5
100
AcDbSymbolTableRecord
100
AcDbLinetypeTableRecord
  2
Continuous
 70
     0
  3
Solid line
 72
    65
 73
     0
 40
0.0
  0
LTYPE
  5
40
330
5
100
AcDbSymbolTableRecord
100
AcDbLinetypeTableRecord
  2
Section_View_Lines
 70
     0
  3
Section View Lines
 72
    65
 73
     4
 40
0.8406
 49
0.6614
 74
     0
 49
-0.0827
 74
     0
 49
0.0138
 74
     0
 49
-0.0827
 74
     0
  0
LTYPE
  5
41
330
5
100
AcDbSymbolTableRecord
100
AcDbLinetypeTableRecord
  2
CHAIN
 70
     0
  3
Chain ____ _ ____ _ ____ _ ____ _ ____ _ ____
 72
    65
 73
     4
 40
0.3543
 49
0.2362
 74
     0
 49
-0.0295
 74
     0
 49
0.0591
 74
     0
 49
-0.0295
 74
     0
  0
LTYPE
  5
42
330
5
100
AcDbSymbolTableRecord
100
AcDbLinetypeTableRecord
  2
DASH_DOT
 70
     0
  3
Dash dot _._._._._._._._._._._._._._._.
 72
    65
 73
     4
 40
0.37
 49
0.24
 74
     0
 49
-0.06
 74
     0
 49
0.01
 74
     0
 49
-0.06
 74
     0
  0
LTYPE
  5
43
330
5
100
AcDbSymbolTableRecord
100
AcDbLinetypeTableRecord
  2
DASH_DOUBLE_DOT
 70
     0
  3
Dash Double Dot __ __ . __ __ . __ __ . __ _
 72
    65
 73
     6
 40
0.4398
 49
0.24
 74
     0
 49
-0.06
 74
     0
 49
0.0098
 74
     0
 49
-0.06
 74
     0
 49
0.01
 74
     0
 49
-0.06
 74
     0
  0
LTYPE
  5
44
330
5
100
AcDbSymbolTableRecord
100
AcDbLinetypeTableRecord
  2
DASH_TRIPLE_DOT
 70
     0
  3
Dash Triple-Dot _ . . . _ . . . _ . . . _
 72
    65
 73
     8
 40
0.51
 49
0.24
 74
     0
 49
-0.06
 74
     0
 49
0.01
 74
     0
 49
-0.06
 74
     0
 49
0.01
 74
     0
 49
-0.06
 74
     0
 49
0.01
 74
     0
 49
-0.06
 74
     0
  0
LTYPE
  5
45
330
5
100
AcDbSymbolTableRecord
100
AcDbLinetypeTableRecord
  2
DASHED
 70
     0
  3
Dashed __ __ __ __ __ __ __ __ __ __ __ __ __ _
 72
    65
 73
     2
 40
0.2067
 49
0.1654
 74
     0
 49
-0.0413
 74
     0
  0
LTYPE
  5
46
330
5
100
AcDbSymbolTableRecord
100
AcDbLinetypeTableRecord
  2
DASHED_SPACE
 70
     0
  3
Dashed Space _._._._._._._._._._._._._._._.
 72
    65
 73
     2
 40
0.2067
 49
0.1654
 74
     0
 49
-0.0413
 74
     0
  0
LTYPE
  5
47
330
5
100
AcDbSymbolTableRecord
100
AcDbLinetypeTableRecord
  2
DOTTED
 70
     0
  3
Dotted . . . . . . . . . . . . . . . . . . . . 
 72
    65
 73
     2
 40
0.0482
 49
0.0069
 74
     0
 49
-0.0413
 74
     0
  0
LTYPE
  5
48
330
5
100
AcDbSymbolTableRecord
100
AcDbLinetypeTableRecord
  2
DOUBLE_DASH_CHAIN
 70
     0
  3
Double Dash Chain ___ _ _ ___ _ _ ___ _ _ ___ _
 72
    65
 73
     6
 40
1.240299999999999
 49
0.6614
 74
     0
 49
-0.0827
 74
     0
 49
0.1654
 74
     0
 49
-0.0827
 74
     0
 49
0.1654
 74
     0
 49
-0.0827
 74
     0
  0
LTYPE
  5
49
330
5
100
AcDbSymbolTableRecord
100
AcDbLinetypeTableRecord
  2
DOUBLE_DASH_DOT
 70
     0
  3
Double Dash Dot __ __ . __ __ . __ __ . __ _
 72
    65
 73
     6
 40
0.67
 49
0.24
 74
     0
 49
-0.06
 74
     0
 49
0.24
 74
     0
 49
-0.06
 74
     0
 49
0.01
 74
     0
 49
-0.06
 74
     0
  0
LTYPE
  5
4A
330
5
100
AcDbSymbolTableRecord
100
AcDbLinetypeTableRecord
  2
DOUBLE_DASH_DOUBLE_DOT
 70
     0
  3
Double-dash double-dot _ _ . . _ _ . . _
 72
    65
 73
     8
 40
0.7400000000000001
 49
0.24
 74
     0
 49
-0.06
 74
     0
 49
0.24
 74
     0
 49
-0.06
 74
     0
 49
0.01
 74
     0
 49
-0.06
 74
     0
 49
0.01
 74
     0
 49
-0.06
 74
     0
  0
LTYPE
  5
4B
330
5
100
AcDbSymbolTableRecord
100
AcDbLinetypeTableRecord
  2
DOUBLE_DASH_TRIPLE_DOT
 70
     0
  3
Double Dash Triple Dot __ __ . . . __ __ . . .
 72
    65
 73
    10
 40
0.8100000000000001
 49
0.24
 74
     0
 49
-0.06
 74
     0
 49
0.24
 74
     0
 49
-0.06
 74
     0
 49
0.01
 74
     0
 49
-0.06
 74
     0
 49
0.01
 74
     0
 49
-0.06
 74
     0
 49
0.01
 74
     0
 49
-0.06
 74
     0
  0
LTYPE
  5
4C
330
5
100
AcDbSymbolTableRecord
100
AcDbLinetypeTableRecord
  2
LONG_DASH_DOTTED
 70
     0
  3
Long-Dash Dot ____ . ____ . ____ . ____ . _
 72
    65
 73
     4
 40
0.3001
 49
0.2362
 74
     0
 49
-0.0295
 74
     0
 49
0.0049
 74
     0
 49
-0.0295
 74
     0
  0
LTYPE
  5
4D
330
5
100
AcDbSymbolTableRecord
100
AcDbLinetypeTableRecord
  2
LONG_DASH_DOUBLE_DOT
 70
     0
  3
Long Dash Double Dot ____ . . ____ . . ____ . .
 72
    65
 73
     6
 40
0.3345
 49
0.2362
 74
     0
 49
-0.0295
 74
     0
 49
0.0049
 74
     0
 49
-0.0295
 74
     0
 49
0.0049
 74
     0
 49
-0.0295
 74
     0
  0
LTYPE
  5
4E
330
5
100
AcDbSymbolTableRecord
100
AcDbLinetypeTableRecord
  2
LONG_DASH_TRIPLE_DOT
 70
     0
  3
Long Dash Triple Dot ____ ... ____ ... ____
 72
    65
 73
     8
 40
0.75
 49
0.48
 74
     0
 49
-0.06
 74
     0
 49
0.01
 74
     0
 49
-0.06
 74
     0
 49
0.01
 74
     0
 49
-0.06
 74
     0
 49
0.01
 74
     0
 49
-0.06
 74
     0
  0
LTYPE
  5
4F
330
5
100
AcDbSymbolTableRecord
100
AcDbLinetypeTableRecord
  2
BORDER
 70
     0
  3
Border __ __ . __ __ . __ __ . __ __ . __ __ .
 72
    65
 73
     6
 40
44.45
 49
12.7
 74
     0
 49
-6.349999999999999
 74
     0
 49
12.7
 74
     0
 49
-6.349999999999999
 74
     0
 49
0.0
 74
     0
 49
-6.349999999999999
 74
     0
  0
LTYPE
  5
50
330
5
100
AcDbSymbolTableRecord
100
AcDbLinetypeTableRecord
  2
BORDER2
 70
     0
  3
Border (.5x) __.__.__.__.__.__.__.__.__.__.__.
 72
    65
 73
     6
 40
22.225
 49
6.349999999999999
 74
     0
 49
-3.174999999999999
 74
     0
 49
6.349999999999999
 74
     0
 49
-3.174999999999999
 74
     0
 49
0.0
 74
     0
 49
-3.174999999999999
 74
     0
  0
LTYPE
  5
51
330
5
100
AcDbSymbolTableRecord
100
AcDbLinetypeTableRecord
  2
BORDERX2
 70
     0
  3
Border (2x) ____  ____  .  ____  ____  .  ___
 72
    65
 73
     6
 40
88.9
 49
25.4
 74
     0
 49
-12.7
 74
     0
 49
25.4
 74
     0
 49
-12.7
 74
     0
 49
0.0
 74
     0
 49
-12.7
 74
     0
  0
LTYPE
  5
52
330
5
100
AcDbSymbolTableRecord
100
AcDbLinetypeTableRecord
  2
CENTER
 70
     0
  3
Center ____ _ ____ _ ____ _ ____ _ ____ _ ____
 72
    65
 73
     4
 40
50.8
 49
31.75
 74
     0
 49
-6.349999999999999
 74
     0
 49
6.349999999999999
 74
     0
 49
-6.349999999999999
 74
     0
  0
LTYPE
  5
53
330
5
100
AcDbSymbolTableRecord
100
AcDbLinetypeTableRecord
  2
CENTER2
 70
     0
  3
Center (.5x) ___ _ ___ _ ___ _ ___ _ ___ _ ___
 72
    65
 73
     4
 40
28.575
 49
19.05
 74
     0
 49
-3.174999999999999
 74
     0
 49
3.174999999999999
 74
     0
 49
-3.174999999999999
 74
     0
  0
LTYPE
  5
54
330
5
100
AcDbSymbolTableRecord
100
AcDbLinetypeTableRecord
  2
CENTERX2
 70
     0
  3
Center (2x) ________  __  ________  __  _____
 72
    65
 73
     4
 40
101.6
 49
63.5
 74
     0
 49
-12.7
 74
     0
 49
12.7
 74
     0
 49
-12.7
 74
     0
  0
LTYPE
  5
55
330
5
100
AcDbSymbolTableRecord
100
AcDbLinetypeTableRecord
  2
DASHDOT2
 70
     0
  3
Dash dot (.5x) _._._._._._._._._._._._._._._.
 72
    65
 73
     4
 40
12.7
 49
6.349999999999999
 74
     0
 49
-3.174999999999999
 74
     0
 49
0.0
 74
     0
 49
-3.174999999999999
 74
     0
  0
LTYPE
  5
56
330
5
100
AcDbSymbolTableRecord
100
AcDbLinetypeTableRecord
  2
DASHDOTX2
 70
     0
  3
Dash dot (2x) ____  .  ____  .  ____  .  ___
 72
    65
 73
     4
 40
50.8
 49
25.4
 74
     0
 49
-12.7
 74
     0
 49
0.0
 74
     0
 49
-12.7
 74
     0
  0
LTYPE
  5
57
330
5
100
AcDbSymbolTableRecord
100
AcDbLinetypeTableRecord
  2
DASHED2
 70
     0
  3
Dashed (.5x) _ _ _ _ _ _ _ _ _ _ _ _ _ _ _ _ _
 72
    65
 73
     2
 40
9.524999999999998
 49
6.349999999999999
 74
     0
 49
-3.174999999999999
 74
     0
  0
LTYPE
  5
58
330
5
100
AcDbSymbolTableRecord
100
AcDbLinetypeTableRecord
  2
DASHEDX2
 70
     0
  3
Dashed (2x) ____  ____  ____  ____  ____  ___
 72
    65
 73
     2
 40
38.1
 49
25.4
 74
     0
 49
-12.7
 74
     0
  0
LTYPE
  5
59
330
5
100
AcDbSymbolTableRecord
100
AcDbLinetypeTableRecord
  2
DIVIDE
 70
     0
  3
Divide ____ . . ____ . . ____ . . ____ . . ____
 72
    65
 73
     6
 40
31.75
 49
12.7
 74
     0
 49
-6.349999999999999
 74
     0
 49
0.0
 74
     0
 49
-6.349999999999999
 74
     0
 49
0.0
 74
     0
 49
-6.349999999999999
 74
     0
  0
LTYPE
  5
5A
330
5
100
AcDbSymbolTableRecord
100
AcDbLinetypeTableRecord
  2
DIVIDE2
 70
     0
  3
Divide (.5x) __..__..__..__..__..__..__..__.._
 72
    65
 73
     6
 40
15.875
 49
6.349999999999999
 74
     0
 49
-3.174999999999999
 74
     0
 49
0.0
 74
     0
 49
-3.174999999999999
 74
     0
 49
0.0
 74
     0
 49
-3.174999999999999
 74
     0
  0
LTYPE
  5
5B
330
5
100
AcDbSymbolTableRecord
100
AcDbLinetypeTableRecord
  2
DIVIDEX2
 70
     0
  3
Divide (2x) ________  .  .  ________  .  .  _
 72
    65
 73
     6
 40
63.49999999999999
 49
25.4
 74
     0
 49
-12.7
 74
     0
 49
0.0
 74
     0
 49
-12.7
 74
     0
 49
0.0
 74
     0
 49
-12.7
 74
     0
  0
LTYPE
  5
5C
330
5
100
AcDbSymbolTableRecord
100
AcDbLinetypeTableRecord
  2
DOT
 70
     0
  3
Dot . . . . . . . . . . . . . . . . . . . . . .
 72
    65
 73
     2
 40
6.349999999999999
 49
0.0
 74
     0
 49
-6.349999999999999
 74
     0
  0
LTYPE
  5
5D
330
5
100
AcDbSymbolTableRecord
100
AcDbLinetypeTableRecord
  2
DOT2
 70
     0
  3
Dot (.5x) .....................................
 72
    65
 73
     2
 40
3.174999999999999
 49
0.0
 74
     0
 49
-3.174999999999999
 74
     0
  0
LTYPE
  5
5E
330
5
100
AcDbSymbolTableRecord
100
AcDbLinetypeTableRecord
  2
DOTX2
 70
     0
  3
Dot (2x) .  .  .  .  .  .  .  .  .  .  .  .  . 
 72
    65
 73
     2
 40
12.7
 49
0.0
 74
     0
 49
-12.7
 74
     0
  0
LTYPE
  5
5F
330
5
100
AcDbSymbolTableRecord
100
AcDbLinetypeTableRecord
  2
HIDDEN
 70
     0
  3
Hidden __ __ __ __ __ __ __ __ __ __ __ __ __ _
 72
    65
 73
     2
 40
9.524999999999998
 49
6.349999999999999
 74
     0
 49
-3.174999999999999
 74
     0
  0
LTYPE
  5
60
330
5
100
AcDbSymbolTableRecord
100
AcDbLinetypeTableRecord
  2
HIDDEN2
 70
     0
  3
Hidden (.5x) _ _ _ _ _ _ _ _ _ _ _ _ _ _ _ _ _
 72
    65
 73
     2
 40
4.762499999999999
 49
3.174999999999999
 74
     0
 49
-1.587499999999999
 74
     0
  0
LTYPE
  5
61
330
5
100
AcDbSymbolTableRecord
100
AcDbLinetypeTableRecord
  2
HIDDENX2
 70
     0
  3
Hidden (2x) ____ ____ ____ ____ ____ ____ ____
 72
    65
 73
     2
 40
19.05
 49
12.7
 74
     0
 49
-6.349999999999999
 74
     0
  0
LTYPE
  5
62
330
5
100
AcDbSymbolTableRecord
100
AcDbLinetypeTableRecord
  2
PHANTOM
 70
     0
  3
Phantom ______  __  __  ______  __  __  ______
 72
    65
 73
     6
 40
63.5
 49
31.75
 74
     0
 49
-6.349999999999999
 74
     0
 49
6.349999999999999
 74
     0
 49
-6.349999999999999
 74
     0
 49
6.349999999999999
 74
     0
 49
-6.349999999999999
 74
     0
  0
LTYPE
  5
63
330
5
100
AcDbSymbolTableRecord
100
AcDbLinetypeTableRecord
  2
PHANTOM2
 70
     0
  3
Phantom (.5x) ___ _ _ ___ _ _ ___ _ _ ___ _ _
 72
    65
 73
     6
 40
31.75
 49
15.875
 74
     0
 49
-3.174999999999999
 74
     0
 49
3.174999999999999
 74
     0
 49
-3.174999999999999
 74
     0
 49
3.174999999999999
 74
     0
 49
-3.174999999999999
 74
     0
  0
LTYPE
  5
64
330
5
100
AcDbSymbolTableRecord
100
AcDbLinetypeTableRecord
  2
PHANTOMX2
 70
     0
  3
Phantom (2x) ____________    ____    ____   _
 72
    65
 73
     6
 40
127.0
 49
63.5
 74
     0
 49
-12.7
 74
     0
 49
12.7
 74
     0
 49
-12.7
 74
     0
 49
12.7
 74
     0
 49
-12.7
 74
     0
  0
LTYPE
  5
65
330
5
100
AcDbSymbolTableRecord
100
AcDbLinetypeTableRecord
  2
ACAD_ISO02W100
 70
     0
  3
ISO dash __ __ __ __ __ __ __ __ __ __ __ __ __
 72
    65
 73
     2
 40
15.0
 49
12.0
 74
     0
 49
-3.0
 74
     0
  0
LTYPE
  5
66
330
5
100
AcDbSymbolTableRecord
100
AcDbLinetypeTableRecord
  2
ACAD_ISO03W100
 70
     0
  3
ISO dash space __    __    __    __    __    __
 72
    65
 73
     2
 40
30.0
 49
12.0
 74
     0
 49
-18.0
 74
     0
  0
LTYPE
  5
67
330
5
100
AcDbSymbolTableRecord
100
AcDbLinetypeTableRecord
  2
ACAD_ISO04W100
 70
     0
  3
ISO long-dash dot ____ . ____ . ____ . ____ . _
 72
    65
 73
     4
 40
30.0
 49
24.0
 74
     0
 49
-3.0
 74
     0
 49
0.0
 74
     0
 49
-3.0
 74
     0
  0
LTYPE
  5
68
330
5
100
AcDbSymbolTableRecord
100
AcDbLinetypeTableRecord
  2
ACAD_ISO05W100
 70
     0
  3
ISO long-dash double-dot ____ .. ____ .. ____ .
 72
    65
 73
     6
 40
33.0
 49
24.0
 74
     0
 49
-3.0
 74
     0
 49
0.0
 74
     0
 49
-3.0
 74
     0
 49
0.0
 74
     0
 49
-3.0
 74
     0
  0
LTYPE
  5
69
330
5
100
AcDbSymbolTableRecord
100
AcDbLinetypeTableRecord
  2
ACAD_ISO06W100
 70
     0
  3
ISO long-dash triple-dot ____ ... ____ ... ____
 72
    65
 73
     8
 40
36.0
 49
24.0
 74
     0
 49
-3.0
 74
     0
 49
0.0
 74
     0
 49
-3.0
 74
     0
 49
0.0
 74
     0
 49
-3.0
 74
     0
 49
0.0
 74
     0
 49
-3.0
 74
     0
  0
LTYPE
  5
6A
330
5
100
AcDbSymbolTableRecord
100
AcDbLinetypeTableRecord
  2
ACAD_ISO07W100
 70
     0
  3
ISO dot . . . . . . . . . . . . . . . . . . . .
 72
    65
 73
     2
 40
3.0
 49
0.0
 74
     0
 49
-3.0
 74
     0
  0
LTYPE
  5
6B
330
5
100
AcDbSymbolTableRecord
100
AcDbLinetypeTableRecord
  2
ACAD_ISO08W100
 70
     0
  3
ISO long-dash short-dash ____ __ ____ __ ____ _
 72
    65
 73
     4
 40
36.0
 49
24.0
 74
     0
 49
-3.0
 74
     0
 49
6.0
 74
     0
 49
-3.0
 74
     0
  0
LTYPE
  5
6C
330
5
100
AcDbSymbolTableRecord
100
AcDbLinetypeTableRecord
  2
ACAD_ISO09W100
 70
     0
  3
ISO long-dash double-short-dash ____ __ __ ____
 72
    65
 73
     6
 40
45.0
 49
24.0
 74
     0
 49
-3.0
 74
     0
 49
6.0
 74
     0
 49
-3.0
 74
     0
 49
6.0
 74
     0
 49
-3.0
 74
     0
  0
LTYPE
  5
6D
330
5
100
AcDbSymbolTableRecord
100
AcDbLinetypeTableRecord
  2
ACAD_ISO10W100
 70
     0
  3
ISO dash dot __ . __ . __ . __ . __ . __ . __ .
 72
    65
 73
     4
 40
18.0
 49
12.0
 74
     0
 49
-3.0
 74
     0
 49
0.0
 74
     0
 49
-3.0
 74
     0
  0
LTYPE
  5
6E
330
5
100
AcDbSymbolTableRecord
100
AcDbLinetypeTableRecord
  2
ACAD_ISO11W100
 70
     0
  3
ISO double-dash dot __ __ . __ __ . __ __ . __ 
 72
    65
 73
     6
 40
33.0
 49
12.0
 74
     0
 49
-3.0
 74
     0
 49
12.0
 74
     0
 49
-3.0
 74
     0
 49
0.0
 74
     0
 49
-3.0
 74
     0
  0
LTYPE
  5
6F
330
5
100
AcDbSymbolTableRecord
100
AcDbLinetypeTableRecord
  2
ACAD_ISO12W100
 70
     0
  3
ISO dash double-dot __ . . __ . . __ . . __ . .
 72
    65
 73
     6
 40
21.0
 49
12.0
 74
     0
 49
-3.0
 74
     0
 49
0.0
 74
     0
 49
-3.0
 74
     0
 49
0.0
 74
     0
 49
-3.0
 74
     0
  0
LTYPE
  5
70
330
5
100
AcDbSymbolTableRecord
100
AcDbLinetypeTableRecord
  2
ACAD_ISO13W100
 70
     0
  3
ISO double-dash double-dot __ __ . . __ __ . . 
 72
    65
 73
     8
 40
36.0
 49
12.0
 74
     0
 49
-3.0
 74
     0
 49
12.0
 74
     0
 49
-3.0
 74
     0
 49
0.0
 74
     0
 49
-3.0
 74
     0
 49
0.0
 74
     0
 49
-3.0
 74
     0
  0
LTYPE
  5
71
330
5
100
AcDbSymbolTableRecord
100
AcDbLinetypeTableRecord
  2
ACAD_ISO14W100
 70
     0
  3
ISO dash triple-dot __ . . . __ . . . __ . . . 
 72
    65
 73
     8
 40
24.0
 49
12.0
 74
     0
 49
-3.0
 74
     0
 49
0.0
 74
     0
 49
-3.0
 74
     0
 49
0.0
 74
     0
 49
-3.0
 74
     0
 49
0.0
 74
     0
 49
-3.0
 74
     0
  0
LTYPE
  5
72
330
5
100
AcDbSymbolTableRecord
100
AcDbLinetypeTableRecord
  2
ACAD_ISO15W100
 70
     0
  3
ISO double-dash triple-dot __ __ . . . __ __ . 
 72
    65
 73
    10
 40
39.0
 49
12.0
 74
     0
 49
-3.0
 74
     0
 49
12.0
 74
     0
 49
-3.0
 74
     0
 49
0.0
 74
     0
 49
-3.0
 74
     0
 49
0.0
 74
     0
 49
-3.0
 74
     0
 49
0.0
 74
     0
 49
-3.0
 74
     0
  0
LTYPE
  5
75
330
5
100
AcDbSymbolTableRecord
100
AcDbLinetypeTableRecord
  2
FENCELINE1
 70
     0
  3
Fenceline circle ----0-----0----0-----0----0---
 72
    65
 73
     4
 40
36.83
 49
6.349999999999999
 74
     0
 49
-2.54
 74
     4
 75
   133
340
74
 46
2.54
 50
0.0
 44
-2.54
 45
0.0
 49
-2.54
 74
     0
 49
25.4
 74
     0
  0
LTYPE
  5
76
330
5
100
AcDbSymbolTableRecord
100
AcDbLinetypeTableRecord
  2
FENCELINE2
 70
     0
  3
Fenceline square ----[]-----[]----[]-----[]----
 72
    65
 73
     4
 40
36.83
 49
6.349999999999999
 74
     0
 49
-2.54
 74
     4
 75
   132
340
74
 46
2.54
 50
0.0
 44
-2.54
 45
0.0
 49
-2.54
 74
     0
 49
25.4
 74
     0
  0
LTYPE
  5
77
330
5
100
AcDbSymbolTableRecord
100
AcDbLinetypeTableRecord
  2
TRACKS
 70
     0
  3
Tracks -|-|-|-|-|-|-|-|-|-|-|-|-|-|-|-|-|-|-|-|
 72
    65
 73
     2
 40
7.62
 49
3.81
 74
     4
 75
   130
340
74
 46
6.349999999999999
 50
0.0
 44
0.0
 45
0.0
 49
3.81
 74
     0
  0
LTYPE
  5
78
330
5
100
AcDbSymbolTableRecord
100
AcDbLinetypeTableRecord
  2
BATTING
 70
     0
  3
Batting SSSSSSSSSSSSSSSSSSSSSSSSSSSSSSSSSSSSSSS
 72
    65
 73
     4
 40
10.16254
 49
0.00254
 74
     0
 49
-2.54
 74
     4
 75
   134
340
74
 46
2.54
 50
0.0
 44
-2.54
 45
0.0
 49
-5.08
 74
     4
 75
   134
340
74
 46
2.54
 50
180.0
 44
2.54
 45
0.0
 49
-2.54
 74
     0
  0
LTYPE
  5
79
330
5
100
AcDbSymbolTableRecord
100
AcDbLinetypeTableRecord
  2
HOT_WATER_SUPPLY
 70
     0
  3
Hot water supply ---- HW ---- HW ---- HW ----
 72
    65
 73
     3
 40
22.86
 49
12.7
 74
     0
 49
-5.08
 74
     2
 75
     0
340
26
 46
2.54
 50
0.0
 44
-2.54
 45
-1.27
  9
HW
 49
-5.08
 74
     0
  0
LTYPE
  5
7A
330
5
100
AcDbSymbolTableRecord
100
AcDbLinetypeTableRecord
  2
GAS_LINE
 70
     0
  3
Gas line ----GAS----GAS----GAS----GAS----GAS---
 72
    65
 73
     3
 40
24.13
 49
12.7
 74
     0
 49
-5.08
 74
     2
 75
     0
340
26
 46
2.54
 50
0.0
 44
-2.54
 45
-1.27
  9
GAS
 49
-6.349999999999999
 74
     0
  0
LTYPE
  5
7B
330
5
100
AcDbSymbolTableRecord
100
AcDbLinetypeTableRecord
  2
ZIGZAG
 70
     0
  3
Zig zag /\/\/\/\/\/\/\/\/\/\/\/\/\/\/\/\/\/\/\/
 72
    65
 73
     4
 40
20.32254
 49
0.00254
 74
     0
 49
-5.08
 74
     4
 75
   131
340
74
 46
5.08
 50
0.0
 44
-5.08
 45
0.0
 49
-10.16
 74
     4
 75
   131
340
74
 46
5.08
 50
180.0
 44
5.08
 45
0.0
 49
-5.08
 74
     0
  0
ENDTAB
  0
TABLE
  2
LAYER
  5
2
330
0
100
AcDbSymbolTable
 70
    74
  0
LAYER
  5
25
330
2
100
AcDbSymbolTableRecord
100
AcDbLayerTableRecord
  2
0
 70
     0
 62
     7
  6
Continuous
370
    -3
390
F
  0
LAYER
  5
90
330
2
100
AcDbSymbolTableRecord
100
AcDbLayerTableRecord
  2
Bemaßungen(TC_020513_DIN)
 70
     0
 62
     7
  6
Continuous
370
    25
390
F
  0
LAYER
  5
A2
330
2
100
AcDbSymbolTableRecord
100
AcDbLayerTableRecord
  2
Mittellinie(TC_020513_DIN)
 70
     0
 62
     7
  6
DASH_DOT
370
    25
390
F
  0
LAYER
  5
A4
330
2
100
AcDbSymbolTableRecord
100
AcDbLayerTableRecord
  2
Mittelpunktmarkierung(TC_020513_DIN)
 70
     0
 62
     7
  6
Continuous
370
    25
390
F
  0
LAYER
  5
AD
330
2
100
AcDbSymbolTableRecord
100
AcDbLayerTableRecord
  2
Schraffur
 70
     0
 62
   179
  6
Continuous
370
     9
390
F
  0
LAYER
  5
AF
330
2
100
AcDbSymbolTableRecord
100
AcDbLayerTableRecord
  2
Sichtbare Kanten(TC_020513_DIN)
 70
     0
 62
     7
  6
Continuous
370
    50
390
F
  0
LAYER
  5
B2
330
2
100
AcDbSymbolTableRecord
100
AcDbLayerTableRecord
  2
Skizziergeometrie(ISO)
 70
     0
 62
     7
  6
Continuous
370
    50
390
F
  0
LAYER
  5
B5
330
2
100
AcDbSymbolTableRecord
100
AcDbLayerTableRecord
  2
Skizzierlinie(TC_020513_DIN)
 70
     1
 62
     3
  6
Continuous
370
    18
390
F
  0
LAYER
  5
BA
330
2
100
AcDbSymbolTableRecord
100
AcDbLayerTableRecord
  2
Symbole(ISO)
 70
     0
 62
     7
  6
Continuous
370
    25
390
F
  0
LAYER
  5
672
330
2
100
AcDbSymbolTableRecord
100
AcDbLayerTableRecord
  2
Defpoints
 70
     0
 62
     7
  6
Continuous
290
     0
370
    -3
390
F
  0
ENDTAB
  0
TABLE
  2
STYLE
  5
3
330
0
100
AcDbSymbolTable
 70
    17
  0
STYLE
  5
26
330
3
100
AcDbSymbolTableRecord
100
AcDbTextStyleTableRecord
  2
Standard
 70
     0
 40
0.0
 41
1.0
 50
0.0
 71
     0
 42
0.2
  3
ARIAL.TTF
  4

1001
ACAD
1000
Arial
1071
      256
  0
STYLE
  5
74
330
3
100
AcDbSymbolTableRecord
100
AcDbTextStyleTableRecord
  2

 70
     1
 40
0.0
 41
1.0
 50
0.0
 71
     0
 42
0.2
  3
ltypeshp.shx
  4

  0
STYLE
  5
C4
330
3
100
AcDbSymbolTableRecord
100
AcDbTextStyleTableRecord
  2
Aktuell-BSI
 70
     0
 40
0.0
 41
1.0
 50
0.0
 71
     0
 42
0.2
  3
ARIAL.TTF
  4

1001
ACAD
1000
Arial
1071
      256
  0
STYLE
  5
C5
330
3
100
AcDbSymbolTableRecord
100
AcDbTextStyleTableRecord
  2
Kopie von TC 5 mm
 70
     0
 40
0.0
 41
1.199999928474426
 50
0.0
 71
     0
 42
0.2
  3
ARIAL.TTF
  4

1001
ACAD
1000
Arial
1071
      256
  0
STYLE
  5
C6
330
3
100
AcDbSymbolTableRecord
100
AcDbTextStyleTableRecord
  2
STANDARD-TC_020513_DIN
 70
     0
 40
0.0
 41
1.0
 50
0.0
 71
     0
 42
0.2
  3
ARIAL.TTF
  4

1001
ACAD
1000
Arial
1071
      256
  0
STYLE
  5
C7
330
3
100
AcDbSymbolTableRecord
100
AcDbTextStyleTableRecord
  2
STANDARD-TC_020513_DINGroßer Text
 70
     0
 40
0.0
 41
1.0
 50
0.0
 71
     0
 42
0.2
  3
ARIAL.TTF
  4

1001
ACAD
1000
Arial
1071
      256
  0
STYLE
  5
C8
330
3
100
AcDbSymbolTableRecord
100
AcDbTextStyleTableRecord
  2
STANDARD-TC_020513_DINNach Layer
 70
     0
 40
0.0
 41
1.0
 50
0.0
 71
     0
 42
0.2
  3
ARIAL.TTF
  4

1001
ACAD
1000
Arial
1071
      256
  0
STYLE
  5
C9
330
3
100
AcDbSymbolTableRecord
100
AcDbTextStyleTableRecord
  2
TC 2_5 mm
 70
     0
 40
0.0
 41
0.899999976158142
 50
0.0
 71
     0
 42
0.2
  3
ARIAL.TTF
  4

1001
ACAD
1000
Arial
1071
      256
  0
STYLE
  5
CA
330
3
100
AcDbSymbolTableRecord
100
AcDbTextStyleTableRecord
  2
TC 3_5 mm
 70
     0
 40
0.0
 41
0.7999999523162842
 50
0.0
 71
     0
 42
0.2
  3
ARIAL.TTF
  4

1001
ACAD
1000
Arial
1071
      256
  0
STYLE
  5
CB
330
3
100
AcDbSymbolTableRecord
100
AcDbTextStyleTableRecord
  2
TC 3_5 mmGroßer Text
 70
     0
 40
0.0
 41
0.899999976158142
 50
0.0
 71
     0
 42
0.2
  3
ARIAL.TTF
  4

1001
ACAD
1000
Arial
1071
      256
  0
STYLE
  5
CC
330
3
100
AcDbSymbolTableRecord
100
AcDbTextStyleTableRecord
  2
TC 3_5 mmNach Layer
 70
     0
 40
0.0
 41
0.899999976158142
 50
0.0
 71
     0
 42
0.2
  3
ARIAL.TTF
  4

1001
ACAD
1000
Arial
1071
      256
  0
STYLE
  5
CD
330
3
100
AcDbSymbolTableRecord
100
AcDbTextStyleTableRecord
  2
TC 4 mm
 70
     0
 40
0.0
 41
1.199999928474426
 50
0.0
 71
     0
 42
0.2
  3
ARIAL.TTF
  4

1001
ACAD
1000
Arial
1071
      256
  0
STYLE
  5
CE
330
3
100
AcDbSymbolTableRecord
100
AcDbTextStyleTableRecord
  2
TC 5 mm
 70
     0
 40
0.0
 41
0.899999976158142
 50
0.0
 71
     0
 42
0.2
  3
ARIAL.TTF
  4

1001
ACAD
1000
Arial
1071
      256
  0
STYLE
  5
CF
330
3
100
AcDbSymbolTableRecord
100
AcDbTextStyleTableRecord
  2
TC 5 mmNach Layer
 70
     0
 40
0.0
 41
0.899999976158142
 50
0.0
 71
     0
 42
0.2
  3
ARIAL.TTF
  4

1001
ACAD
1000
Arial
1071
      256
  0
STYLE
  5
D0
330
3
100
AcDbSymbolTableRecord
100
AcDbTextStyleTableRecord
  2
TC 7 mm
 70
     0
 40
0.0
 41
0.899999976158142
 50
0.0
 71
     0
 42
0.2
  3
ARIAL.TTF
  4

1001
ACAD
1000
Arial
1071
      256
  0
STYLE
  5
F9
330
3
100
AcDbSymbolTableRecord
100
AcDbTextStyleTableRecord
  2
TC 2_5 mm-ISOCPEUR
 70
     0
 40
0.0
 41
0.899999976158142
 50
0.0
 71
     0
 42
0.2
  3
isocpeur.ttf
  4

1001
ACAD
1000
ISOCPEUR
1071
      256
  0
STYLE
  5
FD
330
3
100
AcDbSymbolTableRecord
100
AcDbTextStyleTableRecord
  2
TC 3_5 mm-ISOCPEUR
 70
     0
 40
0.0
 41
0.899999976158142
 50
0.0
 71
     0
 42
0.2
  3
isocpeur.ttf
  4

1001
ACAD
1000
ISOCPEUR
1071
      256
  0
ENDTAB
  0
TABLE
  2
VIEW
  5
6
330
0
100
AcDbSymbolTable
 70
     0
  0
ENDTAB
  0
TABLE
  2
UCS
  5
7
330
0
100
AcDbSymbolTable
 70
     0
  0
ENDTAB
  0
TABLE
  2
APPID
  5
9
330
0
100
AcDbSymbolTable
 70
     1
  0
APPID
  5
27
330
9
100
AcDbSymbolTableRecord
100
AcDbRegAppTableRecord
  2
ACAD
 70
     0
  0
ENDTAB
  0
TABLE
  2
DIMSTYLE
  5
A
330
0
100
AcDbSymbolTable
 70
    17
100
AcDbDimStyleTable
 71
     2
340
D1
340
3F
  0
DIMSTYLE
105
3F
330
A
100
AcDbSymbolTableRecord
100
AcDbDimStyleTableRecord
  2
Standard
 70
     0
340
26
  0
DIMSTYLE
105
D1
102
{ACAD_REACTORS
330
671
330
737
330
7F7
330
8BC
330
981
330
A43
330
B08
102
}
330
A
100
AcDbSymbolTableRecord
100
AcDbDimStyleTableRecord
  2
STANDARD-TC_020513_DIN
 70
     0
 41
2.5
 42
1.0
 43
6.0
 44
2.0
 45
0.00000001
 46
10.0
 73
     0
 74
     0
 77
     1
 78
    12
 79
     3
140
3.5
143
0.03937
147
0.8
171
     3
172
     1
176
     7
177
     7
178
     7
271
     2
272
     2
274
     3
278
    44
340
C4
371
    25
372
    25
  0
DIMSTYLE
105
D2
330
A
100
AcDbSymbolTableRecord
100
AcDbDimStyleTableRecord
  2
STANDARD-TC_020513_DIN$7
 70
     0
 41
2.5
 42
1.0
 43
6.0
 44
2.0
 45
0.00000001
 46
10.0
 73
     0
 74
     0
 77
     1
 78
    12
 79
     3
140
3.5
143
0.03937
147
0.8
171
     3
172
     1
176
     7
177
     7
178
     7
271
     2
272
     2
274
     3
278
    44
340
C4
371
    25
372
    25
  0
DIMSTYLE
105
D3
330
A
100
AcDbSymbolTableRecord
100
AcDbDimStyleTableRecord
  2
STANDARD-TC_020513_DINGroßer Text
 70
     0
 41
5.0
 42
0.0
 43
6.0
 44
3.174999999999999
 45
0.00000001
 46
10.0
 73
     0
 74
     0
 77
     1
140
5.25
143
0.03937
146
0.6666666666666666
147
0.8
171
     3
172
     1
176
     7
177
     7
178
     7
271
     2
272
     2
274
     3
278
    44
340
C7
371
    25
372
    25
  0
DIMSTYLE
105
D4
330
A
100
AcDbSymbolTableRecord
100
AcDbDimStyleTableRecord
  2
STANDARD-TC_020513_DINGroßer Text$7
 70
     0
 41
5.0
 42
0.0
 43
6.0
 44
3.174999999999999
 45
0.00000001
 46
10.0
 73
     0
 74
     0
 77
     1
140
5.25
143
0.03937
146
0.6666666666666666
147
0.8
171
     3
172
     1
176
     7
177
     7
178
     7
271
     2
272
     2
274
     3
278
    44
340
C7
371
    25
372
    25
  0
DIMSTYLE
105
D5
330
A
100
AcDbSymbolTableRecord
100
AcDbDimStyleTableRecord
  2
Teccon Kiel Stil
 70
     0
 41
2.5
 42
0.0
 43
7.0
 44
2.0
 45
0.00000001
 46
10.0
 73
     0
 74
     0
 77
     1
 78
    12
 79
     3
140
3.5
143
0.03937
147
1.0
171
     3
172
     1
176
     7
177
     7
178
     7
179
     1
271
     1
272
     2
274
     3
278
    44
340
CA
371
    25
372
    25
  0
DIMSTYLE
105
D6
330
A
100
AcDbSymbolTableRecord
100
AcDbDimStyleTableRecord
  2
Teccon Kiel Stil$7
 70
     0
 41
2.5
 42
0.0
 43
7.0
 44
2.0
 45
0.00000001
 46
10.0
 73
     0
 74
     0
 77
     1
 78
    12
 79
     3
140
3.5
143
0.03937
147
1.0
171
     3
172
     1
176
     7
177
     7
178
     7
179
     1
271
     1
272
     2
274
     3
278
    44
340
CA
371
    25
372
    25
  0
DIMSTYLE
105
D7
330
A
100
AcDbSymbolTableRecord
100
AcDbDimStyleTableRecord
  2
Teccon Kiel StilGroßer Text
 70
     0
 41
5.0
 42
0.0
 43
7.0
 44
2.0
 45
0.00000001
 46
10.0
 73
     0
 74
     0
 77
     1
 78
    12
 79
     3
140
5.25
143
0.03937
146
0.6666666666666666
147
1.0
171
     3
172
     1
176
     7
177
     7
178
     7
179
     1
271
     1
272
     2
274
     3
278
    44
340
CB
371
    25
372
    25
  0
DIMSTYLE
105
D8
330
A
100
AcDbSymbolTableRecord
100
AcDbDimStyleTableRecord
  2
Teccon Kiel StilGroßer Text$7
 70
     0
 41
5.0
 42
0.0
 43
7.0
 44
2.0
 45
0.00000001
 46
10.0
 73
     0
 74
     0
 77
     1
 78
    12
 79
     3
140
5.25
143
0.03937
146
0.6666666666666666
147
1.0
171
     3
172
     1
176
     7
177
     7
178
     7
179
     1
271
     1
272
     2
274
     3
278
    44
340
CB
371
    25
372
    25
  0
DIMSTYLE
105
D9
330
A
100
AcDbSymbolTableRecord
100
AcDbDimStyleTableRecord
  2
Führungslinie-Ursprungsindikator(ISO)
 70
     0
 41
2.5
340
26
342
DA
  0
DIMSTYLE
105
E1
330
A
100
AcDbSymbolTableRecord
100
AcDbDimStyleTableRecord
  2
Führungslinie-Ursprungsindikator(TC_020513_DIN)
 70
     0
 41
2.5
340
26
342
DA
  0
DIMSTYLE
105
EC
330
A
100
AcDbSymbolTableRecord
100
AcDbDimStyleTableRecord
  2
Führungslinie - Bezugsstelle(ISO)
 70
     0
 41
2.5
340
26
342
DA
  0
DIMSTYLE
105
ED
330
A
100
AcDbSymbolTableRecord
100
AcDbDimStyleTableRecord
  2
Führungslinie - Bezugsstelle(TC_020513_DIN)
 70
     0
 41
2.5
340
26
342
DA
  0
DIMSTYLE
105
EE
330
A
100
AcDbSymbolTableRecord
100
AcDbDimStyleTableRecord
  2
Führungslinie - Punkt(ISO)
 70
     0
 41
2.5
340
26
342
DA
  0
DIMSTYLE
105
EF
330
A
100
AcDbSymbolTableRecord
100
AcDbDimStyleTableRecord
  2
Führungslinie - Punkt(TC_020513_DIN)
 70
     0
 41
2.5
340
26
342
DA
  0
DIMSTYLE
105
F0
330
A
100
AcDbSymbolTableRecord
100
AcDbDimStyleTableRecord
  2
Führungslinie(ISO)
 70
     0
 41
2.5
340
26
342
DA
  0
DIMSTYLE
105
F1
330
A
100
AcDbSymbolTableRecord
100
AcDbDimStyleTableRecord
  2
Führungslinie(TC_020513_DIN)
 70
     0
 41
2.5
340
26
342
DA
  0
ENDTAB
  0
TABLE
  2
BLOCK_RECORD
  5
1
330
0
100
AcDbSymbolTable
 70
    18
  0
BLOCK_RECORD
  5
37
330
1
100
AcDbSymbolTableRecord
100
AcDbBlockTableRecord
  2
*Model_Space
340
3A
  0
BLOCK_RECORD
  5
33
330
1
100
AcDbSymbolTableRecord
100
AcDbBlockTableRecord
  2
*Paper_Space
340
36
  0
BLOCK_RECORD
  5
3B
330
1
100
AcDbSymbolTableRecord
100
AcDbBlockTableRecord
  2
*Paper_Space0
340
3E
  0
BLOCK_RECORD
  5
DA
330
1
100
AcDbSymbolTableRecord
100
AcDbBlockTableRecord
  2
_Closed
340
0
  0
BLOCK_RECORD
  5
E2
330
1
100
AcDbSymbolTableRecord
100
AcDbBlockTableRecord
  2
DatumFilled45
340
0
  0
BLOCK_RECORD
  5
F2
330
1
100
AcDbSymbolTableRecord
100
AcDbBlockTableRecord
  2
DIN 6930 (Toleranzklasse)
340
0
  0
BLOCK_RECORD
  5
103
330
1
100
AcDbSymbolTableRecord
100
AcDbBlockTableRecord
  2
nicht bemaßte Radien
340
0
  0
BLOCK_RECORD
  5
10C
330
1
100
AcDbSymbolTableRecord
100
AcDbBlockTableRecord
  2
DIN ISO 13715 (Werkstückkanten)
340
0
  0
BLOCK_RECORD
  5
130
330
1
100
AcDbSymbolTableRecord
100
AcDbBlockTableRecord
  2
EN 12329 (Chromatierung)
340
0
  0
BLOCK_RECORD
  5
138
330
1
100
AcDbSymbolTableRecord
100
AcDbBlockTableRecord
  2
ISO 2768 (zul. Abweichung)
340
0
  0
BLOCK_RECORD
  5
141
330
1
100
AcDbSymbolTableRecord
100
AcDbBlockTableRecord
  2
DIN ISO 1302 (Oberflächen)
340
0
  0
BLOCK_RECORD
  5
149
330
1
100
AcDbSymbolTableRecord
100
AcDbBlockTableRecord
  2
Ränder Ilme Rahmen A4 quer
340
0
102
{BLKREFS
331
153
102
}
  0
BLOCK_RECORD
  5
154
330
1
100
AcDbSymbolTableRecord
100
AcDbBlockTableRecord
  2
Schriftfelder Ilme
340
0
102
{BLKREFS
331
1C7
102
}
  0
BLOCK_RECORD
  5
673
330
1
100
AcDbSymbolTableRecord
100
AcDbBlockTableRecord
  2
*D11
340
0
  0
BLOCK_RECORD
  5
738
330
1
100
AcDbSymbolTableRecord
100
AcDbBlockTableRecord
  2
*D12
340
0
  0
BLOCK_RECORD
  5
7F8
330
1
100
AcDbSymbolTableRecord
100
AcDbBlockTableRecord
  2
*D13
340
0
  0
BLOCK_RECORD
  5
8BD
330
1
100
AcDbSymbolTableRecord
100
AcDbBlockTableRecord
  2
*D14
340
0
  0
BLOCK_RECORD
  5
982
330
1
100
AcDbSymbolTableRecord
100
AcDbBlockTableRecord
  2
*D15
340
0
  0
BLOCK_RECORD
  5
A44
330
1
100
AcDbSymbolTableRecord
100
AcDbBlockTableRecord
  2
*D16
340
0
  0
BLOCK_RECORD
  5
B09
330
1
100
AcDbSymbolTableRecord
100
AcDbBlockTableRecord
  2
*D17
340
0
  0
ENDTAB
  0
ENDSEC
  0
SECTION
  2
BLOCKS
  0
BLOCK
  5
38
330
37
100
AcDbEntity
  8
0
100
AcDbBlockBegin
  2
*Model_Space
 70
     0
 10
0.0
 20
0.0
 30
0.0
  3
*Model_Space
  1

  0
ENDBLK
  5
39
330
37
100
AcDbEntity
  8
0
100
AcDbBlockEnd
  0
BLOCK
  5
34
330
33
100
AcDbEntity
 67
     1
  8
0
100
AcDbBlockBegin
  2
*Paper_Space
 70
     0
 10
0.0
 20
0.0
 30
0.0
  3
*Paper_Space
  1

  0
ENDBLK
  5
35
330
33
100
AcDbEntity
 67
     1
  8
0
100
AcDbBlockEnd
  0
BLOCK
  5
3C
330
3B
100
AcDbEntity
 67
     1
  8
0
100
AcDbBlockBegin
  2
*Paper_Space0
 70
     0
 10
0.0
 20
0.0
 30
0.0
  3
*Paper_Space0
  1

  0
ENDBLK
  5
3D
330
3B
100
AcDbEntity
 67
     1
  8
0
100
AcDbBlockEnd
  0
BLOCK
  5
DF
330
DA
100
AcDbEntity
  8
0
100
AcDbBlockBegin
  2
_Closed
 70
     0
 10
0.0
 20
0.0
 30
0.0
  3
_Closed
  1

  0
LINE
  5
DB
330
DA
100
AcDbEntity
  8
0
  6
ByBlock
 62
     0
370
    -2
100
AcDbLine
 10
-1.0
 20
0.1666666666666666
 30
0.0
 11
0.0
 21
0.0
 31
0.0
  0
LINE
  5
DC
330
DA
100
AcDbEntity
  8
0
  6
ByBlock
 62
     0
370
    -2
100
AcDbLine
 10
0.0
 20
0.0
 30
0.0
 11
-1.0
 21
-0.1666666666666666
 31
0.0
  0
LINE
  5
DD
330
DA
100
AcDbEntity
  8
0
  6
ByBlock
 62
     0
370
    -2
100
AcDbLine
 10
-1.0
 20
0.1666666666666666
 30
0.0
 11
-1.0
 21
-0.1666666666666666
 31
0.0
  0
LINE
  5
DE
330
DA
100
AcDbEntity
  8
0
  6
ByBlock
 62
     0
370
    -2
100
AcDbLine
 10
0.0
 20
0.0
 30
0.0
 11
-1.0
 21
0.0
 31
0.0
  0
ENDBLK
  5
E0
330
DA
100
AcDbEntity
  8
0
100
AcDbBlockEnd
  0
BLOCK
  5
E3
330
E2
100
AcDbEntity
  8
0
100
AcDbBlockBegin
  2
DatumFilled45
 70
     0
 10
0.0
 20
0.0
 30
0.0
  3
DatumFilled45
  1

  0
POLYLINE
  5
E5
330
E2
100
AcDbEntity
  8
0
 62
     0
100
AcDb2dPolyline
 66
     1
 10
0.0
 20
0.0
 30
0.0
 70
   128
  0
VERTEX
  5
E6
330
E5
100
AcDbEntity
  8
0
 62
     0
100
AcDbVertex
100
AcDb2dVertex
 10
0.0
 20
1.0
 30
0.0
  0
VERTEX
  5
E7
330
E5
100
AcDbEntity
  8
0
 62
     0
100
AcDbVertex
100
AcDb2dVertex
 10
0.0
 20
-1.0
 30
0.0
  0
VERTEX
  5
E9
330
E5
100
AcDbEntity
  8
0
 62
     0
100
AcDbVertex
100
AcDb2dVertex
 10
-1.0
 20
0.0
 30
0.0
  0
VERTEX
  5
EA
330
E5
100
AcDbEntity
  8
0
 62
     0
100
AcDbVertex
100
AcDb2dVertex
 10
0.0
 20
1.0
 30
0.0
  0
SEQEND
  5
E8
330
E5
100
AcDbEntity
  8
0
 62
     0
  0
SOLID
  5
EB
330
E2
100
AcDbEntity
  8
0
 62
     0
100
AcDbTrace
 10
0.0
 20
1.0
 30
0.0
 11
0.0
 21
-1.0
 31
0.0
 12
-1.0
 22
0.0
 32
0.0
 13
0.0
 23
1.0
 33
0.0
  0
ENDBLK
  5
E4
330
E2
100
AcDbEntity
  8
0
100
AcDbBlockEnd
  0
BLOCK
  5
F3
330
F2
100
AcDbEntity
  8
0
100
AcDbBlockBegin
  2
DIN 6930 (Toleranzklasse)
 70
     2
 10
0.0
 20
0.0
 30
0.0
  3
DIN 6930 (Toleranzklasse)
  1

  0
LINE
  5
F5
330
F2
100
AcDbEntity
  8
Skizziergeometrie(ISO)
100
AcDbLine
 10
-49.99999999999999
 20
24.99999999999996
 30
0.0
 11
0.0
 21
24.99999999999996
 31
0.0
  0
LINE
  5
F6
330
F2
100
AcDbEntity
  8
Skizziergeometrie(ISO)
100
AcDbLine
 10
0.0
 20
24.99999999999996
 30
0.0
 11
0.0
 21
0.0
 31
0.0
  0
LINE
  5
F7
330
F2
100
AcDbEntity
  8
Skizziergeometrie(ISO)
100
AcDbLine
 10
0.0
 20
0.0
 30
0.0
 11
-49.99999999999999
 21
0.0
 31
0.0
  0
LINE
  5
F8
330
F2
100
AcDbEntity
  8
Skizziergeometrie(ISO)
100
AcDbLine
 10
-49.99999999999999
 20
0.0
 30
0.0
 11
-49.99999999999999
 21
24.99999999999996
 31
0.0
  0
MTEXT
  5
FA
102
{ACAD_XDICTIONARY
360
BE2
102
}
330
F2
100
AcDbEntity
  8
Symbole(ISO)
 62
     7
100
AcDbMText
 10
-25.01617139266887
 20
22.49496284479633
 30
0.0
 40
2.5
 41
49.93534911063455
 71
     5
 72
     1
  1
F\U+00FCr spanlose Bearbeitung
  7
TC 2_5 mm-ISOCPEUR
 73
     1
 44
1.0
1001
ACAD
1000
MTEXTBEGIN
1070
    73
1070
     1
1070
    44
1040
1.0
1070
    74
1070
     0
1000
MTEXTEND
  0
MTEXT
  5
FC
330
F2
100
AcDbEntity
  8
Symbole(ISO)
 62
     7
100
AcDbMText
 10
-24.96550299476308
 20
17.97814514565743
 30
0.0
 40
2.5
 41
49.94698265738096
 71
     5
 72
     1
  1
Allgemeintoleranz
  7
TC 2_5 mm-ISOCPEUR
 73
     1
 44
1.0
1001
ACAD
1000
MTEXTBEGIN
1070
    73
1070
     1
1070
    44
1040
1.0
1070
    74
1070
     0
1000
MTEXTEND
  0
MTEXT
  5
FE
330
F2
100
AcDbEntity
  8
Symbole(ISO)
 62
     7
100
AcDbMText
 10
-22.00032990803074
 20
12.97814514565747
 30
0.0
 40
3.499999940395355
 41
28.04641142085023
 71
     6
 72
     1
  1
DIN 6930-
  7
TC 3_5 mm-ISOCPEUR
 73
     1
 44
1.0
1001
ACAD
1000
MTEXTBEGIN
1070
    73
1070
     1
1070
    44
1040
1.0
1070
    74
1070
     0
1000
MTEXTEND
  0
MTEXT
  5
FF
330
F2
100
AcDbEntity
  8
Symbole(ISO)
 62
     7
100
AcDbMText
 10
-24.98510412015335
 20
5.018941170990345
 30
0.0
 40
2.5
 41
50.05946813167525
 71
     5
 72
     1
  1
(zul. Abweichung der\PWinkelstellung DIN 6935)
  7
TC 2_5 mm-ISOCPEUR
 73
     2
 44
1.068348169326782
1001
ACAD
1000
MTEXTBEGIN
1070
    73
1070
     2
1070
    44
1040
1.068348169326782
1070
    74
1070
     0
1000
MTEXTEND
  0
ATTDEF
  5
100
330
F2
100
AcDbEntity
  8
Symbole(ISO)
 62
     7
100
AcDbText
 10
-21.93383492465724
 20
11.2184168455105
 30
0.0
 40
3.499999940395355
  1
 
 41
0.899999976158142
  7
TC 3_5 mm-ISOCPEUR
 11
-21.93383492465724
 21
12.96841681570818
 31
0.0
100
AcDbAttributeDefinition
  3
Toleranzklasse
  2
Toleranzklasse
 70
     0
 74
     2
  0
ENDBLK
  5
F4
330
F2
100
AcDbEntity
  8
0
100
AcDbBlockEnd
  0
BLOCK
  5
104
330
103
100
AcDbEntity
  8
0
100
AcDbBlockBegin
  2
nicht bemaßte Radien
 70
     2
 10
0.0
 20
0.0
 30
0.0
  3
nicht bemaßte Radien
  1

  0
LINE
  5
106
330
103
100
AcDbEntity
  8
Skizziergeometrie(ISO)
100
AcDbLine
 10
0.0
 20
0.0
 30
0.0
 11
-50.0
 21
0.0
 31
0.0
  0
LINE
  5
107
330
103
100
AcDbEntity
  8
Skizziergeometrie(ISO)
100
AcDbLine
 10
-50.0
 20
0.0
 30
0.0
 11
-50.0
 21
5.0
 31
0.0
  0
LINE
  5
108
330
103
100
AcDbEntity
  8
Skizziergeometrie(ISO)
100
AcDbLine
 10
-50.0
 20
5.0
 30
0.0
 11
0.0
 21
5.0
 31
0.0
  0
LINE
  5
109
330
103
100
AcDbEntity
  8
Skizziergeometrie(ISO)
100
AcDbLine
 10
0.0
 20
5.0
 30
0.0
 11
0.0
 21
0.0
 31
0.0
  0
MTEXT
  5
10A
102
{ACAD_XDICTIONARY
360
BE4
102
}
330
103
100
AcDbEntity
  8
Symbole(ISO)
 62
     7
100
AcDbMText
 10
-28.98102517277721
 20
2.530616500783118
 30
0.0
 40
2.5
 41
41.95492584233122
 71
     5
 72
     1
  1
Alle nicht bema\U+00DFten Radien R
  7
TC 2_5 mm-ISOCPEUR
 73
     1
 44
1.0
1001
ACAD
1000
MTEXTBEGIN
1070
    73
1070
     1
1070
    44
1040
1.0
1070
    74
1070
     0
1000
MTEXTEND
  0
ATTDEF
  5
10B
330
103
100
AcDbEntity
  8
Symbole(ISO)
 62
     7
100
AcDbText
 10
-4.624331584212832
 20
1.293984431277515
 30
0.0
 40
2.5
  1
 
 41
0.899999976158142
  7
TC 2_5 mm-ISOCPEUR
 72
     1
 11
-3.949331602094225
 21
2.543984431277515
 31
0.0
100
AcDbAttributeDefinition
  3
Radius
  2
Radius
 70
     0
 74
     2
  0
ENDBLK
  5
105
330
103
100
AcDbEntity
  8
0
100
AcDbBlockEnd
  0
BLOCK
  5
10D
330
10C
100
AcDbEntity
  8
0
100
AcDbBlockBegin
  2
DIN ISO 13715 (Werkstückkanten)
 70
     2
 10
0.0
 20
0.0
 30
0.0
  3
DIN ISO 13715 (Werkstückkanten)
  1

  0
LINE
  5
10F
102
{ACAD_REACTORS
330
112
102
}
330
10C
100
AcDbEntity
  8
0
100
AcDbLine
 10
-35.0
 20
20.0
 30
0.0
 11
-32.75944236602587
 21
21.71924034067061
 31
0.0
  0
LINE
  5
110
102
{ACAD_REACTORS
330
112
102
}
330
10C
100
AcDbEntity
  8
0
100
AcDbLine
 10
-33.28075965932943
 20
22.24055763397416
 30
0.0
 11
-35.0
 21
20.0
 31
0.0
  0
LINE
  5
111
102
{ACAD_REACTORS
330
112
102
}
330
10C
100
AcDbEntity
  8
0
100
AcDbLine
 10
-32.75944236602587
 20
21.71924034067061
 30
0.0
 11
-33.28075965932943
 21
22.24055763397416
 31
0.0
  0
HATCH
  5
112
330
10C
100
AcDbEntity
  8
Schraffur
 62
     7
100
AcDbHatch
 10
0.0
 20
0.0
 30
0.0
210
0.0
220
0.0
230
1.0
  2
SOLID
 70
     1
 71
     1
 91
        1
 92
        1
 93
        3
 72
     1
 10
-35.0
 20
20.0
 11
-32.75944236602587
 21
21.71924034067061
 72
     1
 10
-32.75944236602587
 20
21.71924034067061
 11
-33.28075965932943
 21
22.24055763397416
 72
     1
 10
-33.28075965932943
 20
22.24055763397416
 11
-35.0
 21
20.0
 97
        3
330
10F
330
111
330
110
 75
     0
 76
     1
 98
        1
 10
0.0
 20
0.0
  0
LINE
  5
113
102
{ACAD_REACTORS
330
116
102
}
330
10C
100
AcDbEntity
  8
0
100
AcDbLine
 10
-20.00000000000003
 20
20.00000000000003
 30
0.0
 11
-17.7594423660259
 21
21.71924034067057
 31
0.0
  0
LINE
  5
114
102
{ACAD_REACTORS
330
116
102
}
330
10C
100
AcDbEntity
  8
0
100
AcDbLine
 10
-18.28075965932939
 20
22.24055763397406
 30
0.0
 11
-20.00000000000003
 21
20.00000000000003
 31
0.0
  0
LINE
  5
115
102
{ACAD_REACTORS
330
116
102
}
330
10C
100
AcDbEntity
  8
0
100
AcDbLine
 10
-17.7594423660259
 20
21.71924034067057
 30
0.0
 11
-18.28075965932939
 21
22.24055763397406
 31
0.0
  0
HATCH
  5
116
330
10C
100
AcDbEntity
  8
Schraffur
 62
     7
100
AcDbHatch
 10
0.0
 20
0.0
 30
0.0
210
0.0
220
0.0
230
1.0
  2
SOLID
 70
     1
 71
     1
 91
        1
 92
        1
 93
        3
 72
     1
 10
-20.00000000000003
 20
20.00000000000003
 11
-17.7594423660259
 21
21.71924034067057
 72
     1
 10
-17.7594423660259
 20
21.71924034067057
 11
-18.28075965932939
 21
22.24055763397406
 72
     1
 10
-18.28075965932939
 20
22.24055763397406
 11
-20.00000000000003
 21
20.00000000000003
 97
        3
330
113
330
115
330
114
 75
     0
 76
     1
 98
        1
 10
0.0
 20
0.0
  0
LINE
  5
117
330
10C
100
AcDbEntity
  8
Skizziergeometrie(ISO)
100
AcDbLine
 10
-39.89999999999998
 20
20.0
 30
0.0
 11
-35.0
 21
20.0
 31
0.0
  0
LINE
  5
118
330
10C
100
AcDbEntity
  8
Skizziergeometrie(ISO)
100
AcDbLine
 10
-35.0
 20
20.0
 30
0.0
 11
-34.99999999999996
 21
15.09999999999998
 31
0.0
  0
LINE
  5
119
330
10C
100
AcDbEntity
  8
Skizziergeometrie(ISO)
100
AcDbLine
 10
-20.00000000000003
 20
20.00000000000003
 30
0.0
 11
-15.10000000000005
 21
20.00000000000003
 31
0.0
  0
LINE
  5
11A
330
10C
100
AcDbEntity
  8
Skizziergeometrie(ISO)
100
AcDbLine
 10
-20.00000000000003
 20
20.00000000000003
 30
0.0
 11
-20.00000000000003
 21
24.90000000000002
 31
0.0
  0
LINE
  5
11B
330
10C
100
AcDbEntity
  8
Skizziergeometrie(ISO)
100
AcDbLine
 10
-35.0
 20
20.0
 30
0.0
 11
-31.28768939877062
 21
23.71231060122938
 31
0.0
  0
LINE
  5
11C
330
10C
100
AcDbEntity
  8
Skizziergeometrie(ISO)
100
AcDbLine
 10
-31.28768939877062
 20
23.71231060122938
 30
0.0
 11
-26.3876893987706
 21
23.71231060122938
 31
0.0
  0
LINE
  5
11D
330
10C
100
AcDbEntity
  8
Skizziergeometrie(ISO)
100
AcDbLine
 10
-35.0
 20
20.0
 30
0.0
 11
-33.28075965932943
 21
22.24055763397416
 31
0.0
  0
LINE
  5
11E
330
10C
100
AcDbEntity
  8
Skizziergeometrie(ISO)
100
AcDbLine
 10
-33.28075965932943
 20
22.24055763397416
 30
0.0
 11
-32.75944236602587
 21
21.71924034067061
 31
0.0
  0
LINE
  5
11F
330
10C
100
AcDbEntity
  8
Skizziergeometrie(ISO)
100
AcDbLine
 10
-32.75944236602587
 20
21.71924034067061
 30
0.0
 11
-35.0
 21
20.0
 31
0.0
  0
LINE
  5
120
330
10C
100
AcDbEntity
  8
Skizziergeometrie(ISO)
100
AcDbLine
 10
-31.28768939877062
 20
23.71231060122938
 30
0.0
 11
-31.28768939877062
 21
28.61231060122936
 31
0.0
  0
LINE
  5
121
330
10C
100
AcDbEntity
  8
Skizziergeometrie(ISO)
100
AcDbLine
 10
-18.02010101267761
 20
21.97989898732235
 30
0.0
 11
-16.28768939877059
 21
23.71231060122938
 31
0.0
  0
LINE
  5
122
330
10C
100
AcDbEntity
  8
Skizziergeometrie(ISO)
100
AcDbLine
 10
-16.28768939877059
 20
23.71231060122938
 30
0.0
 11
-11.3876893987706
 21
23.71231060122938
 31
0.0
  0
LINE
  5
123
330
10C
100
AcDbEntity
  8
Skizziergeometrie(ISO)
100
AcDbLine
 10
-20.00000000000003
 20
20.00000000000003
 30
0.0
 11
-18.28075965932939
 21
22.24055763397406
 31
0.0
  0
LINE
  5
124
330
10C
100
AcDbEntity
  8
Skizziergeometrie(ISO)
100
AcDbLine
 10
-18.28075965932939
 20
22.24055763397406
 30
0.0
 11
-17.7594423660259
 21
21.71924034067057
 31
0.0
  0
LINE
  5
125
330
10C
100
AcDbEntity
  8
Skizziergeometrie(ISO)
100
AcDbLine
 10
-17.7594423660259
 20
21.71924034067057
 30
0.0
 11
-20.00000000000003
 21
20.00000000000003
 31
0.0
  0
LINE
  5
126
330
10C
100
AcDbEntity
  8
Skizziergeometrie(ISO)
100
AcDbLine
 10
-16.28768939877059
 20
23.71231060122938
 30
0.0
 11
-16.28768939877059
 21
28.61231060122936
 31
0.0
  0
LINE
  5
127
330
10C
100
AcDbEntity
  8
Skizziergeometrie(ISO)
100
AcDbLine
 10
-49.99999999999999
 20
35.0
 30
0.0
 11
0.0
 21
35.0
 31
0.0
  0
LINE
  5
128
330
10C
100
AcDbEntity
  8
Skizziergeometrie(ISO)
100
AcDbLine
 10
0.0
 20
35.0
 30
0.0
 11
0.0
 21
0.0
 31
0.0
  0
LINE
  5
129
330
10C
100
AcDbEntity
  8
Skizziergeometrie(ISO)
100
AcDbLine
 10
0.0
 20
0.0
 30
0.0
 11
-49.99999999999999
 21
0.0
 31
0.0
  0
LINE
  5
12A
330
10C
100
AcDbEntity
  8
Skizziergeometrie(ISO)
100
AcDbLine
 10
-49.99999999999999
 20
0.0
 30
0.0
 11
-49.99999999999999
 21
35.0
 31
0.0
  0
MTEXT
  5
12B
102
{ACAD_XDICTIONARY
360
BE6
102
}
330
10C
100
AcDbEntity
  8
Symbole(ISO)
 62
     7
100
AcDbMText
 10
-24.97893135154584
 20
10.23779293592927
 30
0.0
 40
3.499999940395355
 41
49.9873458157533
 71
     5
 72
     1
  1
Werkst\U+00FCckkanten\Pnach ISO 13715
  7
TC 3_5 mm-ISOCPEUR
 73
     2
 44
1.068348169326782
1001
ACAD
1000
MTEXTBEGIN
1070
    73
1070
     2
1070
    44
1040
1.068348169326782
1070
    74
1070
     0
1000
MTEXTEND
  0
ATTDEF
  5
12C
330
10C
100
AcDbEntity
  8
Symbole(ISO)
 62
     7
100
AcDbText
 10
-30.16177492853139
 20
24.5808246293851
 30
0.0
 40
2.5
  1
 
 41
0.899999976158142
  7
TC 2_5 mm-ISOCPEUR
 11
-30.16177492853139
 21
25.8308246293851
 31
0.0
100
AcDbAttributeDefinition
  3
AK unten
  2
AK_unten
 70
     0
 74
     2
  0
ATTDEF
  5
12D
330
10C
100
AcDbEntity
  8
Symbole(ISO)
 62
     7
100
AcDbText
 10
-30.17792390794348
 20
27.58528770975683
 30
0.0
 40
2.5
  1
 
 41
0.899999976158142
  7
TC 2_5 mm-ISOCPEUR
 11
-30.17792390794348
 21
28.83528770975683
 31
0.0
100
AcDbAttributeDefinition
  3
AK oben
  2
AK_oben
 70
     0
 74
     2
  0
ATTDEF
  5
12E
330
10C
100
AcDbEntity
  8
Symbole(ISO)
 62
     7
100
AcDbText
 10
-15.11922386270676
 20
24.61259748150297
 30
0.0
 40
2.5
  1
 
 41
0.899999976158142
  7
TC 2_5 mm-ISOCPEUR
 11
-15.11922386270676
 21
25.86259748150297
 31
0.0
100
AcDbAttributeDefinition
  3
IK unten
  2
IK_unten
 70
     0
 74
     2
  0
ATTDEF
  5
12F
330
10C
100
AcDbEntity
  8
Symbole(ISO)
 62
     7
100
AcDbText
 10
-15.14487582203273
 20
27.61806754523864
 30
0.0
 40
2.5
  1
 
 41
0.899999976158142
  7
TC 2_5 mm-ISOCPEUR
 11
-15.14487582203273
 21
28.86806754523864
 31
0.0
100
AcDbAttributeDefinition
  3
IK oben
  2
IK_oben
 70
     0
 74
     2
  0
ENDBLK
  5
10E
330
10C
100
AcDbEntity
  8
0
100
AcDbBlockEnd
  0
BLOCK
  5
131
330
130
100
AcDbEntity
  8
0
100
AcDbBlockBegin
  2
EN 12329 (Chromatierung)
 70
     0
 10
0.0
 20
0.0
 30
0.0
  3
EN 12329 (Chromatierung)
  1

  0
LINE
  5
133
330
130
100
AcDbEntity
  8
Skizziergeometrie(ISO)
100
AcDbLine
 10
0.0
 20
0.0
 30
0.0
 11
-50.0
 21
0.0
 31
0.0
  0
LINE
  5
134
330
130
100
AcDbEntity
  8
Skizziergeometrie(ISO)
100
AcDbLine
 10
-50.0
 20
0.0
 30
0.0
 11
-50.0
 21
15.0
 31
0.0
  0
LINE
  5
135
330
130
100
AcDbEntity
  8
Skizziergeometrie(ISO)
100
AcDbLine
 10
-50.0
 20
15.0
 30
0.0
 11
0.0
 21
15.00000000000003
 31
0.0
  0
LINE
  5
136
330
130
100
AcDbEntity
  8
Skizziergeometrie(ISO)
100
AcDbLine
 10
0.0
 20
15.00000000000003
 30
0.0
 11
0.0
 21
0.0
 31
0.0
  0
MTEXT
  5
137
330
130
100
AcDbEntity
  8
Symbole(ISO)
 62
     7
100
AcDbMText
 10
-24.98833105758937
 20
7.490142772208123
 30
0.0
 40
2.5
 41
49.83545872181219
 71
     5
 72
     1
  1
Verzinkt FE / ZN / C\PEN 12329\P(gelb chromatiert)
  7
TC 2_5 mm-ISOCPEUR
 73
     2
 44
1.068348169326782
1001
ACAD
1000
MTEXTBEGIN
1070
    73
1070
     2
1070
    44
1040
1.068348169326782
1070
    74
1070
     0
1000
MTEXTEND
  0
ENDBLK
  5
132
330
130
100
AcDbEntity
  8
0
100
AcDbBlockEnd
  0
BLOCK
  5
139
330
138
100
AcDbEntity
  8
0
100
AcDbBlockBegin
  2
ISO 2768 (zul. Abweichung)
 70
     2
 10
0.0
 20
0.0
 30
0.0
  3
ISO 2768 (zul. Abweichung)
  1

  0
LINE
  5
13B
330
138
100
AcDbEntity
  8
Skizziergeometrie(ISO)
100
AcDbLine
 10
-26.0
 20
0.0
 30
0.0
 11
0.0
 21
0.0
 31
0.0
  0
LINE
  5
13C
330
138
100
AcDbEntity
  8
Skizziergeometrie(ISO)
100
AcDbLine
 10
0.0
 20
0.0
 30
0.0
 11
0.0
 21
17.0
 31
0.0
  0
LINE
  5
13D
330
138
100
AcDbEntity
  8
Skizziergeometrie(ISO)
100
AcDbLine
 10
0.0
 20
17.0
 30
0.0
 11
-26.0
 21
17.0
 31
0.0
  0
LINE
  5
13E
330
138
100
AcDbEntity
  8
Skizziergeometrie(ISO)
100
AcDbLine
 10
-26.0
 20
17.0
 30
0.0
 11
-26.0
 21
0.0
 31
0.0
  0
MTEXT
  5
13F
330
138
100
AcDbEntity
  8
Symbole(ISO)
 62
     7
100
AcDbMText
 10
-7.994454197588593
 20
5.526470854171373
 30
0.0
 40
2.5
 41
17.99309312940538
 71
     6
 72
     1
  1
ISO 2768-
  7
TC 2_5 mm-ISOCPEUR
 73
     1
 44
1.0
1001
ACAD
1000
MTEXTBEGIN
1070
    73
1070
     1
1070
    44
1040
1.0
1070
    74
1070
     0
1000
MTEXTEND
  0
ATTDEF
  5
140
330
138
100
AcDbEntity
  8
Symbole(ISO)
 62
     7
100
AcDbText
 10
-7.924832568762529
 20
4.240604076340716
 30
0.0
 40
2.5
  1
 
 41
0.899999976158142
  7
TC 2_5 mm-ISOCPEUR
 11
-7.924832568762529
 21
5.490604076340716
 31
0.0
100
AcDbAttributeDefinition
  3
Grad
  2
Grad
 70
     0
 74
     2
  0
ENDBLK
  5
13A
330
138
100
AcDbEntity
  8
0
100
AcDbBlockEnd
  0
BLOCK
  5
142
330
141
100
AcDbEntity
  8
0
100
AcDbBlockBegin
  2
DIN ISO 1302 (Oberflächen)
 70
     0
 10
0.0
 20
0.0
 30
0.0
  3
DIN ISO 1302 (Oberflächen)
  1

  0
LINE
  5
144
330
141
100
AcDbEntity
  8
Skizziergeometrie(ISO)
100
AcDbLine
 10
-18.19999999999999
 20
0.0
 30
0.0
 11
0.0
 21
0.0
 31
0.0
  0
LINE
  5
145
330
141
100
AcDbEntity
  8
Skizziergeometrie(ISO)
100
AcDbLine
 10
0.0
 20
0.0
 30
0.0
 11
0.0
 21
17.0
 31
0.0
  0
LINE
  5
146
330
141
100
AcDbEntity
  8
Skizziergeometrie(ISO)
100
AcDbLine
 10
0.0
 20
17.0
 30
0.0
 11
-18.2
 21
17.0
 31
0.0
  0
LINE
  5
147
330
141
100
AcDbEntity
  8
Skizziergeometrie(ISO)
100
AcDbLine
 10
-18.2
 20
17.0
 30
0.0
 11
-18.19999999999999
 21
0.0
 31
0.0
  0
MTEXT
  5
148
330
141
100
AcDbEntity
  8
Symbole(ISO)
 62
     7
100
AcDbMText
 10
-9.137586403397849
 20
5.561325836084813
 30
0.0
 40
2.5
 41
18.21623868792871
 71
     5
 72
     1
  1
DIN ISO 1302
  7
TC 2_5 mm-ISOCPEUR
 73
     1
 44
1.0
1001
ACAD
1000
MTEXTBEGIN
1070
    73
1070
     1
1070
    44
1040
1.0
1070
    74
1070
     0
1000
MTEXTEND
  0
ENDBLK
  5
143
330
141
100
AcDbEntity
  8
0
100
AcDbBlockEnd
  0
BLOCK
  5
14A
330
149
100
AcDbEntity
  8
0
100
AcDbBlockBegin
  2
Ränder Ilme Rahmen A4 quer
 70
     0
 10
0.0
 20
0.0
 30
0.0
  3
Ränder Ilme Rahmen A4 quer
  1

  0
LINE
  5
14C
330
149
100
AcDbEntity
  8
Skizziergeometrie(ISO)
100
AcDbLine
 10
9.999999999999982
 20
9.999999999999952
 30
0.0
 11
10.00000000000001
 21
190.0
 31
0.0
  0
LINE
  5
14D
330
149
100
AcDbEntity
  8
Skizziergeometrie(ISO)
100
AcDbLine
 10
10.00000000000001
 20
190.0
 30
0.0
 11
287.0
 21
190.0
 31
0.0
  0
LINE
  5
14E
330
149
100
AcDbEntity
  8
Skizziergeometrie(ISO)
100
AcDbLine
 10
9.999999999999982
 20
9.999999999999952
 30
0.0
 11
287.0
 21
10.00000000000003
 31
0.0
  0
LINE
  5
14F
330
149
100
AcDbEntity
  8
Skizziergeometrie(ISO)
100
AcDbLine
 10
148.5
 20
210.0
 30
0.0
 11
148.5
 21
196.0
 31
0.0
  0
LINE
  5
150
330
149
100
AcDbEntity
  8
Skizziergeometrie(ISO)
100
AcDbLine
 10
287.0
 20
190.0
 30
0.0
 11
287.0
 21
10.00000000000003
 31
0.0
  0
MTEXT
  5
151
330
149
100
AcDbEntity
  8
Symbole(ISO)
 62
     7
100
AcDbMText
 10
148.5
 20
196.0
 30
0.0
 40
3.499999940395355
 41
0.0
 71
     2
 72
     1
  1
\fISOCPEUR|b0|i0;\H3.5000;    Diritti riservati     All rights reseved
  7
TC 2_5 mm
 73
     1
 44
1.0
1001
ACAD
1000
MTEXTBEGIN
1070
    73
1070
     1
1070
    44
1040
1.0
1070
    74
1070
     0
1000
MTEXTEND
  0
ENDBLK
  5
14B
330
149
100
AcDbEntity
  8
0
100
AcDbBlockEnd
  0
BLOCK
  5
155
330
154
100
AcDbEntity
  8
0
100
AcDbBlockBegin
  2
Schriftfelder Ilme
 70
     2
 10
0.0
 20
0.0
 30
0.0
  3
Schriftfelder Ilme
  1

  0
ARC
  5
157
102
{ACAD_REACTORS
330
15B
102
}
330
154
100
AcDbEntity
  8
0
100
AcDbCircle
 10
184.655189950303
 20
19.15390948356282
 30
10.0
 40
0.3333333333333996
100
AcDbArc
 50
0.0
 51
180.0
  0
LINE
  5
158
102
{ACAD_REACTORS
330
15B
102
}
330
154
100
AcDbEntity
  8
0
100
AcDbLine
 10
184.3218566169696
 20
15.84737070168959
 30
10.0
 11
184.3218566169696
 21
19.15390948356282
 31
10.0
  0
ARC
  5
159
102
{ACAD_REACTORS
330
15B
102
}
330
154
100
AcDbEntity
  8
0
100
AcDbCircle
 10
184.655189950303
 20
15.84737070168959
 30
10.0
 40
0.3333333333333997
100
AcDbArc
 50
180.0
 51
0.0
  0
LINE
  5
15A
102
{ACAD_REACTORS
330
15B
102
}
330
154
100
AcDbEntity
  8
0
100
AcDbLine
 10
184.9885232836365
 20
19.15390948356282
 30
10.0
 11
184.9885232836365
 21
15.84737070168959
 31
10.0
  0
HATCH
  5
15B
330
154
100
AcDbEntity
  8
Schraffur
 62
     7
100
AcDbHatch
 10
0.0
 20
0.0
 30
0.0
210
0.0
220
0.0
230
1.0
  2
SOLID
 70
     1
 71
     1
 91
        1
 92
        1
 93
        4
 72
     2
 10
184.655189950303
 20
19.15390948356282
 40
0.3333333333333996
 50
0.0
 51
180.0
 73
     1
 72
     1
 10
184.3218566169696
 20
19.15390948356282
 11
184.3218566169696
 21
15.84737070168959
 72
     2
 10
184.655189950303
 20
15.84737070168959
 40
0.3333333333333997
 50
180.0
 51
360.0
 73
     1
 72
     1
 10
184.9885232836365
 20
15.84737070168959
 11
184.9885232836365
 21
19.15390948356282
 97
        4
330
157
330
158
330
159
330
15A
 75
     0
 76
     1
 98
        1
 10
0.0
 20
0.0
  0
LINE
  5
15C
102
{ACAD_REACTORS
330
163
102
}
330
154
100
AcDbEntity
  8
0
100
AcDbLine
 10
188.4894939320861
 20
14.02010125116808
 30
0.0
 11
186.3218576257727
 21
15.27066065865696
 31
0.0
  0
ARC
  5
15D
102
{ACAD_REACTORS
330
163
102
}
330
154
100
AcDbEntity
  8
0
100
AcDbCircle
 10
188.3229197809228
 20
13.73137272248517
 30
0.0
 40
0.333333333333396
100
AcDbArc
 50
240.0183606311473
 51
60.01836063114733
  0
LINE
  5
15E
102
{ACAD_REACTORS
330
163
102
}
330
154
100
AcDbEntity
  8
0
100
AcDbLine
 10
185.9887104250881
 20
14.69320296572853
 30
0.0
 11
188.1563456297596
 21
13.44264419380229
 31
0.0
  0
ARC
  5
15F
102
{ACAD_REACTORS
330
163
102
}
330
154
100
AcDbEntity
  8
0
100
AcDbCircle
 10
186.3218598278342
 20
15.27066193048824
 30
0.0
 40
0.6666688687282916
100
AcDbArc
 50
180.0
 51
240.0183606311454
  0
LINE
  5
160
102
{ACAD_REACTORS
330
163
102
}
330
154
100
AcDbEntity
  8
0
100
AcDbLine
 10
185.6551909591059
 20
19.94397836659928
 30
0.0
 11
185.6551909591059
 21
15.27066193048824
 31
0.0
  0
ARC
  5
161
102
{ACAD_REACTORS
330
163
102
}
330
154
100
AcDbEntity
  8
0
100
AcDbCircle
 10
185.9885242924393
 20
19.94397836659928
 30
0.0
 40
0.333333333333396
100
AcDbArc
 50
0.0
 51
180.0
  0
LINE
  5
162
102
{ACAD_REACTORS
330
163
102
}
330
154
100
AcDbEntity
  8
0
100
AcDbLine
 10
186.3218576257727
 20
15.27066065865696
 30
0.0
 11
186.3218576257727
 21
19.94397836659928
 31
0.0
  0
HATCH
  5
163
330
154
100
AcDbEntity
  8
Schraffur
 62
     7
100
AcDbHatch
 10
0.0
 20
0.0
 30
0.0
210
0.0
220
0.0
230
1.0
  2
SOLID
 70
     1
 71
     1
 91
        1
 92
        1
 93
        7
 72
     1
 10
188.4894939320861
 20
14.02010125116808
 11
186.3218576257727
 21
15.27066065865696
 72
     1
 10
186.3218576257727
 20
15.27066065865696
 11
186.3218576257727
 21
19.94397836659928
 72
     2
 10
185.9885242924393
 20
19.94397836659928
 40
0.333333333333396
 50
0.0
 51
180.0
 73
     1
 72
     1
 10
185.6551909591059
 20
19.94397836659928
 11
185.6551909591059
 21
15.27066193048824
 72
     2
 10
186.3218598278342
 20
15.27066193048824
 40
0.6666688687282916
 50
180.0
 51
240.0183606311454
 73
     1
 72
     1
 10
185.9887104250881
 20
14.69320296572853
 11
188.1563456297596
 21
13.44264419380229
 72
     2
 10
188.3229197809228
 20
13.73137272248517
 40
0.333333333333396
 50
240.0183606311473
 51
420.0183606311473
 73
     1
 97
        7
330
15C
330
162
330
161
330
160
330
15F
330
15E
330
15D
 75
     0
 76
     1
 98
        1
 10
0.0
 20
0.0
  0
LINE
  5
164
102
{ACAD_REACTORS
330
171
102
}
330
154
100
AcDbEntity
  8
0
100
AcDbLine
 10
188.655189950303
 20
18.85482345606895
 30
0.0
 11
187.4829623801859
 21
20.88518116554469
 31
0.0
  0
LINE
  5
165
102
{ACAD_REACTORS
330
171
102
}
330
154
100
AcDbEntity
  8
0
100
AcDbLine
 10
189.82741752042
 20
20.88518116554469
 30
0.0
 11
188.655189950303
 21
18.85482345606895
 31
0.0
  0
ARC
  5
166
102
{ACAD_REACTORS
330
171
102
}
330
154
100
AcDbEntity
  8
0
100
AcDbCircle
 10
190.0568849915682
 20
20.75269805930704
 30
0.0
 40
0.2649662124752865
100
AcDbArc
 50
0.0
 51
149.9999999999939
  0
LINE
  5
167
102
{ACAD_REACTORS
330
171
102
}
330
154
100
AcDbEntity
  8
0
100
AcDbLine
 10
190.3218512040435
 20
14.28806850858179
 30
0.0
 11
190.3218512040435
 21
20.75269805930705
 31
0.0
  0
ARC
  5
168
102
{ACAD_REACTORS
330
171
102
}
330
154
100
AcDbEntity
  8
0
100
AcDbCircle
 10
189.98851787071
 20
14.28806850858179
 30
0.0
 40
0.3333333333334023
100
AcDbArc
 50
180.0
 51
0.0
  0
LINE
  5
169
102
{ACAD_REACTORS
330
171
102
}
330
154
100
AcDbEntity
  8
0
100
AcDbLine
 10
189.6551845373767
 20
19.25353601487275
 30
0.0
 11
189.6551845373766
 21
14.28806850858179
 31
0.0
  0
LINE
  5
16A
102
{ACAD_REACTORS
330
171
102
}
330
154
100
AcDbEntity
  8
0
100
AcDbLine
 10
188.7995275176003
 20
17.77149458276708
 30
0.0
 11
189.6551845373767
 21
19.25353601487275
 31
0.0
  0
ARC
  5
16B
102
{ACAD_REACTORS
330
171
102
}
330
154
100
AcDbEntity
  8
0
100
AcDbCircle
 10
188.655189950303
 20
17.85482791610036
 30
0.0
 40
0.1666666666665381
100
AcDbArc
 50
209.9999999999992
 51
330.0000000000008
  0
LINE
  5
16C
102
{ACAD_REACTORS
330
171
102
}
330
154
100
AcDbEntity
  8
0
100
AcDbLine
 10
187.6551953632293
 20
19.25353601487277
 30
0.0
 11
188.5108523830057
 21
17.77149458276708
 31
0.0
  0
LINE
  5
16D
102
{ACAD_REACTORS
330
171
102
}
330
154
100
AcDbEntity
  8
0
100
AcDbLine
 10
187.6551953632293
 20
15.84737070168959
 30
0.0
 11
187.6551953632293
 21
19.25353601487277
 31
0.0
  0
ARC
  5
16E
102
{ACAD_REACTORS
330
171
102
}
330
154
100
AcDbEntity
  8
0
100
AcDbCircle
 10
187.3218620298959
 20
15.84737070168959
 30
0.0
 40
0.333333333333396
100
AcDbArc
 50
180.0
 51
0.0
  0
LINE
  5
16F
102
{ACAD_REACTORS
330
171
102
}
330
154
100
AcDbEntity
  8
0
100
AcDbLine
 10
186.9885286965624
 20
20.75269805930705
 30
0.0
 11
186.9885286965624
 21
15.84737070168959
 31
0.0
  0
ARC
  5
170
102
{ACAD_REACTORS
330
171
102
}
330
154
100
AcDbEntity
  8
0
100
AcDbCircle
 10
187.2534949090378
 20
20.75269805930705
 30
0.0
 40
0.2649662124752854
100
AcDbArc
 50
29.9999999999981
 51
180.0
  0
HATCH
  5
171
330
154
100
AcDbEntity
  8
Schraffur
 62
     7
100
AcDbHatch
 10
0.0
 20
0.0
 30
0.0
210
0.0
220
0.0
230
1.0
  2
SOLID
 70
     1
 71
     1
 91
        1
 92
        1
 93
       13
 72
     1
 10
188.655189950303
 20
18.85482345606895
 11
187.4829623801859
 21
20.88518116554469
 72
     2
 10
187.2534949090378
 20
20.75269805930705
 40
0.2649662124752854
 50
29.9999999999981
 51
180.0
 73
     1
 72
     1
 10
186.9885286965624
 20
20.75269805930705
 11
186.9885286965624
 21
15.84737070168959
 72
     2
 10
187.3218620298959
 20
15.84737070168959
 40
0.333333333333396
 50
180.0
 51
360.0
 73
     1
 72
     1
 10
187.6551953632293
 20
15.84737070168959
 11
187.6551953632293
 21
19.25353601487277
 72
     1
 10
187.6551953632293
 20
19.25353601487277
 11
188.5108523830057
 21
17.77149458276708
 72
     2
 10
188.655189950303
 20
17.85482791610036
 40
0.1666666666665381
 50
209.9999999999992
 51
330.0000000000008
 73
     1
 72
     1
 10
188.7995275176003
 20
17.77149458276708
 11
189.6551845373767
 21
19.25353601487275
 72
     1
 10
189.6551845373767
 20
19.25353601487275
 11
189.6551845373766
 21
14.28806850858179
 72
     2
 10
189.98851787071
 20
14.28806850858179
 40
0.3333333333334023
 50
180.0
 51
360.0
 73
     1
 72
     1
 10
190.3218512040435
 20
14.28806850858179
 11
190.3218512040435
 21
20.75269805930705
 72
     2
 10
190.0568849915682
 20
20.75269805930704
 40
0.2649662124752865
 50
0.0
 51
149.9999999999939
 73
     1
 72
     1
 10
189.82741752042
 20
20.88518116554469
 11
188.655189950303
 21
18.85482345606894
 97
       13
330
164
330
170
330
16F
330
16E
330
16D
330
16C
330
16B
330
16A
330
169
330
168
330
167
330
166
330
165
 75
     0
 76
     1
 98
        1
 10
0.0
 20
0.0
  0
ARC
  5
172
102
{ACAD_REACTORS
330
180
102
}
330
154
100
AcDbEntity
  8
0
100
AcDbCircle
 10
192.6913083387628
 20
15.84737070168959
 30
10.0
 40
0.3333333333333919
100
AcDbArc
 50
299.9816393688529
 51
119.9816393688526
  0
LINE
  5
173
102
{ACAD_REACTORS
330
180
102
}
330
154
100
AcDbEntity
  8
0
100
AcDbLine
 10
191.6551889415001
 20
15.6344385114688
 30
10.0
 11
192.5247341875995
 21
16.13609923037247
 31
10.0
  0
LINE
  5
174
102
{ACAD_REACTORS
330
180
102
}
330
154
100
AcDbEntity
  8
0
100
AcDbLine
 10
191.6551889415001
 20
17.1673067592928
 30
10.0
 11
191.6551889415001
 21
15.6344385114688
 31
10.0
  0
LINE
  5
175
102
{ACAD_REACTORS
330
180
102
}
330
154
100
AcDbEntity
  8
0
100
AcDbLine
 10
192.6913083387628
 20
17.1673067592928
 30
10.0
 11
191.6551889415001
 21
17.1673067592928
 31
10.0
  0
ARC
  5
176
102
{ACAD_REACTORS
330
180
102
}
330
154
100
AcDbEntity
  8
0
100
AcDbCircle
 10
192.6913083387628
 20
17.5006400926262
 30
10.0
 40
0.333333333333396
100
AcDbArc
 50
270.0
 51
90.0
  0
LINE
  5
177
102
{ACAD_REACTORS
330
180
102
}
330
154
100
AcDbEntity
  8
0
100
AcDbLine
 10
191.6551889415001
 20
17.8339734259596
 30
10.0
 11
192.6913083387628
 21
17.8339734259596
 31
10.0
  0
LINE
  5
178
102
{ACAD_REACTORS
330
180
102
}
330
154
100
AcDbEntity
  8
0
100
AcDbLine
 10
191.6551889415001
 20
19.36684167378358
 30
10.0
 11
191.6551889415001
 21
17.8339734259596
 31
10.0
  0
LINE
  5
179
102
{ACAD_REACTORS
330
180
102
}
330
154
100
AcDbEntity
  8
0
100
AcDbLine
 10
192.5247341875995
 20
18.86518095487989
 30
10.0
 11
191.6551889415001
 21
19.36684167378358
 31
10.0
  0
ARC
  5
17A
102
{ACAD_REACTORS
330
180
102
}
330
154
100
AcDbEntity
  8
0
100
AcDbCircle
 10
192.6913083387628
 20
19.15390948356282
 30
10.0
 40
0.3333333333333963
100
AcDbArc
 50
240.0183606311407
 51
60.01835942372524
  0
LINE
  5
17B
102
{ACAD_REACTORS
330
180
102
}
330
154
100
AcDbEntity
  8
0
100
AcDbLine
 10
191.4884297593299
 20
20.23270689528218
 30
10.0
 11
192.857882489926
 21
19.44263801224573
 31
10.0
  0
ARC
  5
17C
102
{ACAD_REACTORS
330
180
102
}
330
154
100
AcDbEntity
  8
0
100
AcDbCircle
 10
191.3218556081666
 20
19.94397836659928
 30
10.0
 40
0.333333333333396
100
AcDbArc
 50
60.01836063114071
 51
180.0
  0
LINE
  5
17D
102
{ACAD_REACTORS
330
180
102
}
330
154
100
AcDbEntity
  8
0
100
AcDbLine
 10
190.9885222748332
 20
15.05730181865312
 30
10.0
 11
190.9885222748332
 21
19.94397836659928
 31
10.0
  0
ARC
  5
17E
102
{ACAD_REACTORS
330
180
102
}
330
154
100
AcDbEntity
  8
0
100
AcDbCircle
 10
191.3218556081666
 20
15.05730181865312
 30
10.0
 40
0.333333333333396
100
AcDbArc
 50
180.0
 51
299.9816393688593
  0
LINE
  5
17F
102
{ACAD_REACTORS
330
180
102
}
330
154
100
AcDbEntity
  8
0
100
AcDbLine
 10
192.857882489926
 20
15.55864217300668
 30
10.0
 11
191.4884297593299
 21
14.7685732899702
 31
10.0
  0
HATCH
  5
180
330
154
100
AcDbEntity
  8
Schraffur
 62
     7
100
AcDbHatch
 10
0.0
 20
0.0
 30
0.0
210
0.0
220
0.0
230
1.0
  2
SOLID
 70
     1
 71
     1
 91
        1
 92
        1
 93
       14
 72
     2
 10
192.6913083387628
 20
15.84737070168959
 40
0.3333333333333919
 50
299.9816393688529
 51
479.9816393688526
 73
     1
 72
     1
 10
192.5247341875995
 20
16.13609923037247
 11
191.6551889415001
 21
15.63443851146881
 72
     1
 10
191.6551889415001
 20
15.6344385114688
 11
191.6551889415001
 21
17.1673067592928
 72
     1
 10
191.6551889415001
 20
17.1673067592928
 11
192.6913083387628
 21
17.1673067592928
 72
     2
 10
192.6913083387628
 20
17.5006400926262
 40
0.333333333333396
 50
270.0
 51
450.0
 73
     1
 72
     1
 10
192.6913083387628
 20
17.8339734259596
 11
191.6551889415001
 21
17.8339734259596
 72
     1
 10
191.6551889415001
 20
17.8339734259596
 11
191.6551889415001
 21
19.36684167378358
 72
     1
 10
191.6551889415001
 20
19.36684167378358
 11
192.5247341875995
 21
18.86518095487989
 72
     2
 10
192.6913083387628
 20
19.15390948356282
 40
0.3333333333333963
 50
240.0183606311407
 51
420.0183594237252
 73
     1
 72
     1
 10
192.857882489926
 20
19.44263801224573
 11
191.4884297593299
 21
20.23270689528218
 72
     2
 10
191.3218556081666
 20
19.94397836659928
 40
0.333333333333396
 50
60.01836063114071
 51
180.0
 73
     1
 72
     1
 10
190.9885222748332
 20
19.94397836659928
 11
190.9885222748332
 21
15.05730181865312
 72
     2
 10
191.3218556081666
 20
15.05730181865312
 40
0.333333333333396
 50
180.0
 51
299.9816393688593
 73
     1
 72
     1
 10
191.4884297593299
 20
14.7685732899702
 11
192.857882489926
 21
15.55864217300668
 97
       14
330
172
330
173
330
174
330
175
330
176
330
177
330
178
330
179
330
17A
330
17B
330
17C
330
17D
330
17E
330
17F
 75
     0
 76
     1
 98
        1
 10
0.0
 20
0.0
  0
LINE
  5
181
330
154
100
AcDbEntity
  8
Skizziergeometrie(ISO)
100
AcDbLine
 10
19.98018995030303
 20
45.0006400926262
 30
0.0
 11
199.980189950303
 21
45.0006400926262
 31
0.0
  0
LINE
  5
182
330
154
100
AcDbEntity
  8
Skizziergeometrie(ISO)
100
AcDbLine
 10
19.98018995030303
 20
40.0006400926262
 30
0.0
 11
199.980189950303
 21
40.0006400926262
 31
0.0
  0
LINE
  5
183
330
154
100
AcDbEntity
  8
Skizziergeometrie(ISO)
100
AcDbLine
 10
19.98018995030303
 20
35.00064009262621
 30
0.0
 11
199.980189950303
 21
35.00064009262621
 31
0.0
  0
LINE
  5
184
330
154
100
AcDbEntity
  8
Skizziergeometrie(ISO)
100
AcDbLine
 10
19.98018995030303
 20
30.00064009262621
 30
0.0
 11
199.980189950303
 21
30.00064009262621
 31
0.0
  0
LINE
  5
185
330
154
100
AcDbEntity
  8
Skizziergeometrie(ISO)
100
AcDbLine
 10
19.98018995030303
 20
25.00064009262621
 30
0.0
 11
199.980189950303
 21
25.00064009262621
 31
0.0
  0
LINE
  5
186
330
154
100
AcDbEntity
  8
Skizziergeometrie(ISO)
100
AcDbLine
 10
19.98018995030303
 20
17.5006400926262
 30
0.0
 11
49.98018995030306
 21
17.5006400926262
 31
0.0
  0
LINE
  5
187
330
154
100
AcDbEntity
  8
Skizziergeometrie(ISO)
100
AcDbLine
 10
26.98018995030303
 20
45.0006400926262
 30
0.0
 11
26.98018995030303
 21
25.00064009262621
 31
0.0
  0
LINE
  5
188
330
154
100
AcDbEntity
  8
Skizziergeometrie(ISO)
100
AcDbLine
 10
44.98018995030303
 20
45.0006400926262
 30
0.0
 11
44.98018995030303
 21
25.00064009262621
 31
0.0
  0
LINE
  5
189
330
154
100
AcDbEntity
  8
Skizziergeometrie(ISO)
100
AcDbLine
 10
49.98018995030306
 20
10.0006400926262
 30
0.0
 11
49.98018995030306
 21
25.00064009262621
 31
0.0
  0
LINE
  5
18A
330
154
100
AcDbEntity
  8
Skizziergeometrie(ISO)
100
AcDbLine
 10
159.980189950303
 20
25.00064009262621
 30
0.0
 11
159.980189950303
 21
10.0006400926262
 31
0.0
  0
LINE
  5
18B
330
154
100
AcDbEntity
  8
Skizziergeometrie(ISO)
100
AcDbLine
 10
177.3301899503031
 20
25.0006400926262
 30
0.0
 11
177.3301899503031
 21
10.0006400926262
 31
0.0
  0
LINE
  5
18C
330
154
100
AcDbEntity
  8
Skizziergeometrie(ISO)
100
AcDbLine
 10
190.9885222748332
 20
15.05730181865312
 30
0.0
 11
190.9885222748332
 21
19.94397836659928
 31
0.0
  0
LINE
  5
18D
330
154
100
AcDbEntity
  8
Skizziergeometrie(ISO)
100
AcDbLine
 10
192.857882489926
 20
15.55864217300668
 30
0.0
 11
191.4884297593299
 21
14.7685732899702
 31
0.0
  0
LINE
  5
18E
330
154
100
AcDbEntity
  8
Skizziergeometrie(ISO)
100
AcDbLine
 10
191.6551889415001
 20
15.6344385114688
 30
0.0
 11
192.5247341875995
 21
16.13609923037247
 31
0.0
  0
LINE
  5
18F
330
154
100
AcDbEntity
  8
Skizziergeometrie(ISO)
100
AcDbLine
 10
191.6551889415001
 20
17.1673067592928
 30
0.0
 11
191.6551889415001
 21
15.6344385114688
 31
0.0
  0
LINE
  5
190
330
154
100
AcDbEntity
  8
Skizziergeometrie(ISO)
100
AcDbLine
 10
192.6913083387628
 20
17.1673067592928
 30
0.0
 11
191.6551889415001
 21
17.1673067592928
 31
0.0
  0
LINE
  5
191
330
154
100
AcDbEntity
  8
Skizziergeometrie(ISO)
100
AcDbLine
 10
191.6551889415001
 20
17.8339734259596
 30
0.0
 11
192.6913083387628
 21
17.8339734259596
 31
0.0
  0
LINE
  5
192
330
154
100
AcDbEntity
  8
Skizziergeometrie(ISO)
100
AcDbLine
 10
191.6551889415001
 20
19.36684167378358
 30
0.0
 11
191.6551889415001
 21
17.8339734259596
 31
0.0
  0
LINE
  5
193
330
154
100
AcDbEntity
  8
Skizziergeometrie(ISO)
100
AcDbLine
 10
192.5247341875995
 20
18.86518095487989
 30
0.0
 11
191.6551889415001
 21
19.36684167378358
 31
0.0
  0
LINE
  5
194
330
154
100
AcDbEntity
  8
Skizziergeometrie(ISO)
100
AcDbLine
 10
191.4884297593299
 20
20.23270689528218
 30
0.0
 11
192.857882489926
 21
19.44263801224573
 31
0.0
  0
LINE
  5
195
330
154
100
AcDbEntity
  8
Skizziergeometrie(ISO)
100
AcDbLine
 10
184.3218566169696
 20
15.84737070168959
 30
0.0
 11
184.3218566169696
 21
19.15390948356282
 31
0.0
  0
LINE
  5
196
330
154
100
AcDbEntity
  8
Skizziergeometrie(ISO)
100
AcDbLine
 10
184.9885232836365
 20
19.15390948356282
 30
0.0
 11
184.9885232836365
 21
15.84737070168959
 31
0.0
  0
LINE
  5
197
330
154
100
AcDbEntity
  8
Skizziergeometrie(ISO)
100
AcDbLine
 10
188.1563456297596
 20
13.44264419380229
 30
0.0
 11
185.9887104250881
 21
14.69320296572853
 31
0.0
  0
LINE
  5
198
330
154
100
AcDbEntity
  8
Skizziergeometrie(ISO)
100
AcDbLine
 10
186.3218576257727
 20
15.27066065865696
 30
0.0
 11
188.4894939320861
 21
14.02010125116808
 31
0.0
  0
LINE
  5
199
330
154
100
AcDbEntity
  8
Skizziergeometrie(ISO)
100
AcDbLine
 10
186.3218576257727
 20
19.94397836659928
 30
0.0
 11
186.3218576257727
 21
15.27066065865696
 31
0.0
  0
LINE
  5
19A
330
154
100
AcDbEntity
  8
Skizziergeometrie(ISO)
100
AcDbLine
 10
185.6551909591059
 20
15.27066193048824
 30
0.0
 11
185.6551909591059
 21
19.94397836659928
 31
0.0
  0
LINE
  5
19B
330
154
100
AcDbEntity
  8
Skizziergeometrie(ISO)
100
AcDbLine
 10
189.82741752042
 20
20.88518116554469
 30
0.0
 11
188.655189950303
 21
18.85482345606895
 31
0.0
  0
LINE
  5
19C
330
154
100
AcDbEntity
  8
Skizziergeometrie(ISO)
100
AcDbLine
 10
190.3218512040435
 20
14.28806850858179
 30
0.0
 11
190.3218512040435
 21
20.75269805930705
 31
0.0
  0
LINE
  5
19D
330
154
100
AcDbEntity
  8
Skizziergeometrie(ISO)
100
AcDbLine
 10
187.4829623801859
 20
20.88518116554469
 30
0.0
 11
188.655189950303
 21
18.85482345606895
 31
0.0
  0
LINE
  5
19E
330
154
100
AcDbEntity
  8
Skizziergeometrie(ISO)
100
AcDbLine
 10
186.9885286965624
 20
15.84737070168959
 30
0.0
 11
186.9885286965624
 21
20.75269805930705
 31
0.0
  0
LINE
  5
19F
330
154
100
AcDbEntity
  8
Skizziergeometrie(ISO)
100
AcDbLine
 10
188.655189950303
 20
12.50064009262539
 30
0.0
 11
180.2387546751623
 21
17.35627582828491
 31
0.0
  0
LINE
  5
1A0
330
154
100
AcDbEntity
  8
Skizziergeometrie(ISO)
100
AcDbLine
 10
197.0716252254436
 20
17.35627582828489
 30
0.0
 11
188.655189950303
 21
12.50064009262539
 31
0.0
  0
LINE
  5
1A1
330
154
100
AcDbEntity
  8
Skizziergeometrie(ISO)
100
AcDbLine
 10
188.655189950303
 20
22.50064009262702
 30
0.0
 11
197.0716252254436
 21
17.6450043569675
 31
0.0
  0
LINE
  5
1A2
330
154
100
AcDbEntity
  8
Skizziergeometrie(ISO)
100
AcDbLine
 10
180.2387546751623
 20
17.6450043569675
 30
0.0
 11
188.655189950303
 21
22.50064009262702
 31
0.0
  0
LINE
  5
1A3
330
154
100
AcDbEntity
  8
Skizziergeometrie(ISO)
100
AcDbLine
 10
187.6551953632293
 20
19.25353601487277
 30
0.0
 11
187.6551953632293
 21
15.84737070168959
 31
0.0
  0
LINE
  5
1A4
330
154
100
AcDbEntity
  8
Skizziergeometrie(ISO)
100
AcDbLine
 10
188.5108523830057
 20
17.77149458276708
 30
0.0
 11
187.6551953632293
 21
19.25353601487277
 31
0.0
  0
LINE
  5
1A5
330
154
100
AcDbEntity
  8
Skizziergeometrie(ISO)
100
AcDbLine
 10
189.6551845373767
 20
19.25353601487275
 30
0.0
 11
188.7995275176003
 21
17.77149458276708
 31
0.0
  0
LINE
  5
1A6
330
154
100
AcDbEntity
  8
Skizziergeometrie(ISO)
100
AcDbLine
 10
189.6551845373766
 20
14.28806850858179
 30
0.0
 11
189.6551845373767
 21
19.25353601487275
 31
0.0
  0
ARC
  5
1A7
330
154
100
AcDbEntity
  8
Skizziergeometrie(ISO)
100
AcDbCircle
 10
192.6913083387628
 20
15.84737070168959
 30
0.0
 40
0.3333333333333919
100
AcDbArc
 50
299.9816393688527
 51
119.98163936886
  0
ARC
  5
1A8
330
154
100
AcDbEntity
  8
Skizziergeometrie(ISO)
100
AcDbCircle
 10
192.6913083387628
 20
17.5006400926262
 30
0.0
 40
0.333333333333396
100
AcDbArc
 50
270.0
 51
90.0
  0
ARC
  5
1A9
330
154
100
AcDbEntity
  8
Skizziergeometrie(ISO)
100
AcDbCircle
 10
192.6913083387628
 20
19.15390948356282
 30
0.0
 40
0.3333333333333963
100
AcDbArc
 50
240.0183606311413
 51
60.01836063114108
  0
ARC
  5
1AA
330
154
100
AcDbEntity
  8
Skizziergeometrie(ISO)
100
AcDbCircle
 10
184.655189950303
 20
15.84737070168959
 30
0.0
 40
0.3333333333333997
100
AcDbArc
 50
180.0
 51
0.0
  0
ARC
  5
1AB
330
154
100
AcDbEntity
  8
Skizziergeometrie(ISO)
100
AcDbCircle
 10
184.655189950303
 20
19.15390948356282
 30
0.0
 40
0.3333333333333996
100
AcDbArc
 50
0.0
 51
180.0
  0
ARC
  5
1AC
330
154
100
AcDbEntity
  8
Skizziergeometrie(ISO)
100
AcDbCircle
 10
188.3229197809228
 20
13.73137272248517
 30
0.0
 40
0.333333333333396
100
AcDbArc
 50
240.0183606311468
 51
60.01836063114108
  0
ARC
  5
1AD
330
154
100
AcDbEntity
  8
Skizziergeometrie(ISO)
100
AcDbCircle
 10
185.9885242924393
 20
19.94397836659928
 30
0.0
 40
0.333333333333396
100
AcDbArc
 50
0.0
 51
180.0
  0
ARC
  5
1AE
330
154
100
AcDbEntity
  8
Skizziergeometrie(ISO)
100
AcDbCircle
 10
190.0568849915682
 20
20.75269805930704
 30
0.0
 40
0.2649662124752865
100
AcDbArc
 50
0.0
 51
149.9999999999956
  0
ARC
  5
1AF
330
154
100
AcDbEntity
  8
Skizziergeometrie(ISO)
100
AcDbCircle
 10
189.98851787071
 20
14.28806850858179
 30
0.0
 40
0.3333333333334023
100
AcDbArc
 50
180.0
 51
0.0
  0
ARC
  5
1B0
330
154
100
AcDbEntity
  8
Skizziergeometrie(ISO)
100
AcDbCircle
 10
187.3218620298959
 20
15.84737070168959
 30
0.0
 40
0.333333333333396
100
AcDbArc
 50
180.0
 51
0.0
  0
ARC
  5
1B1
330
154
100
AcDbEntity
  8
Skizziergeometrie(ISO)
100
AcDbCircle
 10
187.2534949090378
 20
20.75269805930705
 30
0.0
 40
0.2649662124752854
100
AcDbArc
 50
29.99999999999976
 51
180.0
  0
ARC
  5
1B2
330
154
100
AcDbEntity
  8
Skizziergeometrie(ISO)
100
AcDbCircle
 10
191.3218556081666
 20
15.05730181865312
 30
0.0
 40
0.333333333333396
100
AcDbArc
 50
180.0
 51
299.9816393688587
  0
ARC
  5
1B3
330
154
100
AcDbEntity
  8
Skizziergeometrie(ISO)
100
AcDbCircle
 10
191.3218556081666
 20
19.94397836659928
 30
0.0
 40
0.333333333333396
100
AcDbArc
 50
60.01836063114071
 51
180.0
  0
ARC
  5
1B4
330
154
100
AcDbEntity
  8
Skizziergeometrie(ISO)
100
AcDbCircle
 10
196.9883381498621
 20
17.5006400926262
 30
0.0
 40
0.1666666666665381
100
AcDbArc
 50
299.9816393688627
 51
60.01836063115012
  0
ARC
  5
1B5
330
154
100
AcDbEntity
  8
Skizziergeometrie(ISO)
100
AcDbCircle
 10
180.3220417507439
 20
17.5006400926262
 30
0.0
 40
0.1666666666665381
100
AcDbArc
 50
119.9816393688498
 51
240.0183606311497
  0
ARC
  5
1B6
330
154
100
AcDbEntity
  8
Skizziergeometrie(ISO)
100
AcDbCircle
 10
186.3218598278342
 20
15.27066193048824
 30
0.0
 40
0.6666688687282916
100
AcDbArc
 50
180.0
 51
240.0183606311453
  0
ARC
  5
1B7
330
154
100
AcDbEntity
  8
Skizziergeometrie(ISO)
100
AcDbCircle
 10
188.655189950303
 20
17.85482791610036
 30
0.0
 40
0.1666666666665381
100
AcDbArc
 50
209.9999999999999
 51
330.0000000000001
  0
LINE
  5
1B8
330
154
100
AcDbEntity
  8
Skizzierlinie(TC_020513_DIN)
100
AcDbLine
 10
20.98018995030303
 20
25.00064009262621
 30
0.0
 11
20.98018995030303
 21
17.5006400926262
 31
0.0
  0
LINE
  5
1B9
330
154
100
AcDbEntity
  8
Skizzierlinie(TC_020513_DIN)
100
AcDbLine
 10
20.98018995030303
 20
17.5006400926262
 30
0.0
 11
20.980189950303
 21
10.0006400926262
 31
0.0
  0
LINE
  5
1BA
330
154
100
AcDbEntity
  8
Skizzierlinie(TC_020513_DIN)
100
AcDbLine
 10
49.98018995030306
 20
25.00064009262621
 30
0.0
 11
29.98018995030301
 21
17.5006400926262
 31
0.0
  0
LINE
  5
1BB
330
154
100
AcDbEntity
  8
Skizzierlinie(TC_020513_DIN)
100
AcDbLine
 10
177.3301899503031
 20
25.0006400926262
 30
0.0
 11
159.980189950303
 21
20.0006400926262
 31
0.0
  0
LINE
  5
1BC
330
154
100
AcDbEntity
  8
Skizzierlinie(TC_020513_DIN)
100
AcDbLine
 10
159.980189950303
 20
20.0006400926262
 30
0.0
 11
177.3301899503031
 21
10.0006400926262
 31
0.0
  0
LINE
  5
1BD
330
154
100
AcDbEntity
  8
Skizziergeometrie(ISO)
100
AcDbLine
 10
19.98018995030303
 20
45.0006400926262
 30
0.0
 11
19.98018995030303
 21
10.0006400926262
 31
0.0
  0
LINE
  5
1BE
330
154
100
AcDbEntity
  8
Skizzierlinie(TC_020513_DIN)
100
AcDbLine
 10
50.98018995030301
 20
25.00064009262621
 30
0.0
 11
50.98018995030301
 21
17.5006400926262
 31
0.0
  0
LINE
  5
1BF
330
154
100
AcDbEntity
  8
Skizzierlinie(TC_020513_DIN)
100
AcDbLine
 10
50.98018995030301
 20
17.5006400926262
 30
0.0
 11
50.98018995030301
 21
10.0006400926262
 31
0.0
  0
MTEXT
  5
1C0
330
154
100
AcDbEntity
  8
Symbole(ISO)
 62
     7
100
AcDbMText
 10
20.98018995030303
 20
21.2506400926262
 30
0.0
 40
2.5
 41
8.997516465920178
 71
     4
 72
     1
  1
 Date
  7
TC 2_5 mm
 73
     1
 44
1.0
1001
ACAD
1000
MTEXTBEGIN
1070
    73
1070
     1
1070
    44
1040
1.0
1070
    74
1070
     0
1000
MTEXTEND
  0
MTEXT
  5
1C1
330
154
100
AcDbEntity
  8
Symbole(ISO)
 62
     7
100
AcDbMText
 10
20.980189950303
 20
13.7506400926262
 30
0.0
 40
2.5
 41
8.970966064125889
 71
     4
 72
     1
  1
 Sign.
  7
TC 2_5 mm
 73
     1
 44
1.0
1001
ACAD
1000
MTEXTBEGIN
1070
    73
1070
     1
1070
    44
1040
1.0
1070
    74
1070
     0
1000
MTEXTEND
  0
MTEXT
  5
1C2
330
154
100
AcDbEntity
  8
Symbole(ISO)
 62
     7
100
AcDbMText
 10
168.655189950303
 20
22.5006400926262
 30
0.0
 40
2.5
 41
17.34061856478945
 71
     5
 72
     1
  1
Scale
  7
TC 2_5 mm
 73
     1
 44
1.0
1001
ACAD
1000
MTEXTBEGIN
1070
    73
1070
     1
1070
    44
1040
1.0
1070
    74
1070
     0
1000
MTEXTEND
  0
MTEXT
  5
1C3
330
154
100
AcDbEntity
  8
Symbole(ISO)
 62
     7
100
AcDbMText
 10
39.98018995030301
 20
21.2506400926262
 30
0.0
 40
3.499999940395355
 41
20.95325017112982
 71
     5
 72
     1
  1
10.01.2007
  7
TC 3_5 mm
 73
     1
 44
1.0
1001
ACAD
1000
MTEXTBEGIN
1070
    73
1070
     1
1070
    44
1040
1.0
1070
    74
1070
     0
1000
MTEXTEND
  0
ATTDEF
  5
1C4
330
154
100
AcDbEntity
  8
Symbole(ISO)
 62
     7
100
AcDbText
 10
50.98018995030301
 20
11.75064006282388
 30
0.0
 40
4.000000059604644
  1
hood top entry 2xM20
 41
1.199999928474426
  7
Kopie von TC 5 mm
 11
50.98018995030301
 21
13.7506400926262
 31
0.0
100
AcDbAttributeDefinition
  3
BEZEICHNUNG
  2
BEZEICHNUNG
 70
     0
 74
     2
  0
ATTDEF
  5
1C5
330
154
100
AcDbEntity
  8
Symbole(ISO)
 62
     7
100
AcDbText
 10
164.2856470919772
 20
12.5006400926262
 30
0.0
 40
5.0
  1
1:1
 41
0.899999976158142
  7
TC 5 mm
 72
     1
 11
168.655189950303
 21
15.0006400926262
 31
0.0
100
AcDbAttributeDefinition
  3
FirstViewScale
  2
FirstViewScale
 70
     0
 74
     2
  0
ATTDEF
  5
1C6
330
154
100
AcDbEntity
  8
Symbole(ISO)
 62
     7
100
AcDbText
 10
50.98018995030301
 20
19.25064006282388
 30
0.0
 40
4.000000059604644
  1
MZFV 25 L220
 41
1.199999928474426
  7
Kopie von TC 5 mm
 11
50.98018995030301
 21
21.2506400926262
 31
0.0
100
AcDbAttributeDefinition
  3
BAUTEILNUMMER
  2
BAUTEILNUMMER
 70
     0
 74
     2
  0
ENDBLK
  5
156
330
154
100
AcDbEntity
  8
0
100
AcDbBlockEnd
  0
BLOCK
  5
67E
330
673
100
AcDbEntity
  8
0
100
AcDbBlockBegin
  2
*D11
 70
     1
 10
0.0
 20
0.0
 30
0.0
  3
*D11
  1

  0
LINE
  5
72E
330
673
100
AcDbEntity
  8
Bemaßungen(TC_020513_DIN)
  6
Continuous
 62
     7
370
    25
100
AcDbLine
 10
62.00783623347327
 20
94.76363285514546
 30
0.0
 11
62.00783623347327
 21
69.61602492240695
 31
0.0
  0
LINE
  5
72F
330
673
100
AcDbEntity
  8
Bemaßungen(TC_020513_DIN)
  6
Continuous
 62
     7
370
    25
100
AcDbLine
 10
128.0078362334732
 20
94.76363285514546
 30
0.0
 11
128.0078362334732
 21
69.61602492240695
 31
0.0
  0
LINE
  5
730
330
673
100
AcDbEntity
  8
Bemaßungen(TC_020513_DIN)
  6
Continuous
 62
     7
370
    25
100
AcDbLine
 10
64.50783623347326
 20
71.61602492240695
 30
0.0
 11
125.5078362334732
 21
71.61602492240695
 31
0.0
  0
SOLID
  5
731
330
673
100
AcDbEntity
  8
Bemaßungen(TC_020513_DIN)
  6
Continuous
 62
     7
100
AcDbTrace
 10
64.50783623347326
 20
72.03269158907362
 30
0.0
 11
64.50783623347326
 21
71.19935825574028
 31
0.0
 12
62.00783623347327
 22
71.61602492240695
 32
0.0
 13
62.00783623347327
 23
71.61602492240695
 33
0.0
  0
SOLID
  5
732
330
673
100
AcDbEntity
  8
Bemaßungen(TC_020513_DIN)
  6
Continuous
 62
     7
100
AcDbTrace
 10
125.5078362334732
 20
72.03269158907362
 30
0.0
 11
125.5078362334732
 21
71.19935825574028
 31
0.0
 12
128.0078362334732
 22
71.61602492240695
 32
0.0
 13
128.0078362334732
 23
71.61602492240695
 33
0.0
  0
MTEXT
  5
733
330
673
100
AcDbEntity
  8
Bemaßungen(TC_020513_DIN)
  6
Continuous
 62
     7
370
    25
100
AcDbMText
 10
92.49265888013082
 20
75.9900358364588
 30
0.0
 40
3.5
 41
0.0
 71
     1
 72
     1
  1
\A1;66
  7
Aktuell-BSI
 73
     1
 44
1.0
1001
ACAD
1000
MTEXTBEGIN
1070
    73
1070
     1
1070
    44
1040
1.0
1070
    74
1070
     0
1000
MTEXTEND
  0
POINT
  5
734
330
673
100
AcDbEntity
  8
Defpoints
  6
Continuous
 62
     0
100
AcDbPoint
 10
62.00783623347327
 20
95.76363285514545
 30
0.0
  0
POINT
  5
735
330
673
100
AcDbEntity
  8
Defpoints
  6
Continuous
 62
     0
100
AcDbPoint
 10
128.0078362334732
 20
95.76363285514545
 30
0.0
  0
POINT
  5
736
330
673
100
AcDbEntity
  8
Defpoints
  6
Continuous
 62
     0
100
AcDbPoint
 10
128.0078362334732
 20
71.61602492240695
 30
0.0
  0
ENDBLK
  5
67F
330
673
100
AcDbEntity
  8
0
100
AcDbBlockEnd
  0
BLOCK
  5
743
330
738
100
AcDbEntity
  8
0
100
AcDbBlockBegin
  2
*D12
 70
     1
 10
0.0
 20
0.0
 30
0.0
  3
*D12
  1

  0
LINE
  5
7EE
330
738
100
AcDbEntity
  8
Bemaßungen(TC_020513_DIN)
  6
Continuous
 62
     7
370
    25
100
AcDbLine
 10
55.25783623347326
 20
83.25363285514544
 30
0.0
 11
55.25783623347326
 21
60.00769040545944
 31
0.0
  0
LINE
  5
7EF
330
738
100
AcDbEntity
  8
Bemaßungen(TC_020513_DIN)
  6
Continuous
 62
     7
370
    25
100
AcDbLine
 10
134.7578362334732
 20
83.25363285514544
 30
0.0
 11
134.7578362334732
 21
60.00769040545944
 31
0.0
  0
LINE
  5
7F0
330
738
100
AcDbEntity
  8
Bemaßungen(TC_020513_DIN)
  6
Continuous
 62
     7
370
    25
100
AcDbLine
 10
57.75783623347326
 20
62.00769040545944
 30
0.0
 11
132.2578362334732
 21
62.00769040545944
 31
0.0
  0
SOLID
  5
7F1
330
738
100
AcDbEntity
  8
Bemaßungen(TC_020513_DIN)
  6
Continuous
 62
     7
100
AcDbTrace
 10
57.75783623347326
 20
62.4243570721261
 30
0.0
 11
57.75783623347326
 21
61.59102373879278
 31
0.0
 12
55.25783623347326
 22
62.00769040545944
 32
0.0
 13
55.25783623347326
 23
62.00769040545944
 33
0.0
  0
SOLID
  5
7F2
330
738
100
AcDbEntity
  8
Bemaßungen(TC_020513_DIN)
  6
Continuous
 62
     7
100
AcDbTrace
 10
132.2578362334732
 20
62.4243570721261
 30
0.0
 11
132.2578362334732
 21
61.59102373879278
 31
0.0
 12
134.7578362334732
 22
62.00769040545944
 32
0.0
 13
134.7578362334732
 23
62.00769040545944
 33
0.0
  0
MTEXT
  5
7F3
330
738
100
AcDbEntity
  8
Bemaßungen(TC_020513_DIN)
  6
Continuous
 62
     7
370
    25
100
AcDbMText
 10
90.46332736580614
 20
67.01437526221251
 30
0.0
 40
3.5
 41
0.0
 71
     1
 72
     1
  1
\A1;79,5
  7
Aktuell-BSI
 73
     1
 44
1.0
1001
ACAD
1000
MTEXTBEGIN
1070
    73
1070
     1
1070
    44
1040
1.0
1070
    74
1070
     0
1000
MTEXTEND
  0
POINT
  5
7F4
330
738
100
AcDbEntity
  8
Defpoints
  6
Continuous
 62
     0
100
AcDbPoint
 10
55.25783623347326
 20
84.25363285514544
 30
0.0
  0
POINT
  5
7F5
330
738
100
AcDbEntity
  8
Defpoints
  6
Continuous
 62
     0
100
AcDbPoint
 10
134.7578362334732
 20
84.25363285514544
 30
0.0
  0
POINT
  5
7F6
330
738
100
AcDbEntity
  8
Defpoints
  6
Continuous
 62
     0
100
AcDbPoint
 10
134.7578362334732
 20
62.00769040545944
 30
0.0
  0
ENDBLK
  5
744
330
738
100
AcDbEntity
  8
0
100
AcDbBlockEnd
  0
BLOCK
  5
803
330
7F8
100
AcDbEntity
  8
0
100
AcDbBlockBegin
  2
*D13
 70
     1
 10
0.0
 20
0.0
 30
0.0
  3
*D13
  1

  0
LINE
  5
8B3
330
7F8
100
AcDbEntity
  8
Bemaßungen(TC_020513_DIN)
  6
Continuous
 62
     7
370
    25
100
AcDbLine
 10
205.0781115712731
 20
94.76363285514544
 30
0.0
 11
205.0781115712731
 21
69.61602492240695
 31
0.0
  0
LINE
  5
8B4
330
7F8
100
AcDbEntity
  8
Bemaßungen(TC_020513_DIN)
  6
Continuous
 62
     7
370
    25
100
AcDbLine
 10
221.0781115712731
 20
94.76363285514544
 30
0.0
 11
221.0781115712731
 21
69.61602492240695
 31
0.0
  0
LINE
  5
8B5
330
7F8
100
AcDbEntity
  8
Bemaßungen(TC_020513_DIN)
  6
Continuous
 62
     7
370
    25
100
AcDbLine
 10
207.5781115712731
 20
71.61602492240695
 30
0.0
 11
218.5781115712731
 21
71.61602492240695
 31
0.0
  0
SOLID
  5
8B6
330
7F8
100
AcDbEntity
  8
Bemaßungen(TC_020513_DIN)
  6
Continuous
 62
     7
100
AcDbTrace
 10
207.5781115712731
 20
72.03269158907362
 30
0.0
 11
207.5781115712731
 21
71.19935825574028
 31
0.0
 12
205.0781115712731
 22
71.61602492240695
 32
0.0
 13
205.0781115712731
 23
71.61602492240695
 33
0.0
  0
SOLID
  5
8B7
330
7F8
100
AcDbEntity
  8
Bemaßungen(TC_020513_DIN)
  6
Continuous
 62
     7
100
AcDbTrace
 10
218.5781115712731
 20
72.03269158907362
 30
0.0
 11
218.5781115712731
 21
71.19935825574028
 31
0.0
 12
221.0781115712731
 22
71.61602492240695
 32
0.0
 13
221.0781115712731
 23
71.61602492240695
 33
0.0
  0
MTEXT
  5
8B8
330
7F8
100
AcDbEntity
  8
Bemaßungen(TC_020513_DIN)
  6
Continuous
 62
     7
370
    25
100
AcDbMText
 10
210.7372179832785
 20
75.9900358364588
 30
0.0
 40
3.5
 41
0.0
 71
     1
 72
     1
  1
\A1;16
  7
Aktuell-BSI
 73
     1
 44
1.0
1001
ACAD
1000
MTEXTBEGIN
1070
    73
1070
     1
1070
    44
1040
1.0
1070
    74
1070
     0
1000
MTEXTEND
  0
POINT
  5
8B9
330
7F8
100
AcDbEntity
  8
Defpoints
  6
Continuous
 62
     0
100
AcDbPoint
 10
205.0781115712731
 20
95.76363285514544
 30
0.0
  0
POINT
  5
8BA
330
7F8
100
AcDbEntity
  8
Defpoints
  6
Continuous
 62
     0
100
AcDbPoint
 10
221.0781115712731
 20
95.76363285514544
 30
0.0
  0
POINT
  5
8BB
330
7F8
100
AcDbEntity
  8
Defpoints
  6
Continuous
 62
     0
100
AcDbPoint
 10
221.0781115712731
 20
71.61602492240695
 30
0.0
  0
ENDBLK
  5
804
330
7F8
100
AcDbEntity
  8
0
100
AcDbBlockEnd
  0
BLOCK
  5
8C8
330
8BD
100
AcDbEntity
  8
0
100
AcDbBlockBegin
  2
*D14
 70
     1
 10
0.0
 20
0.0
 30
0.0
  3
*D14
  1

  0
LINE
  5
978
330
8BD
100
AcDbEntity
  8
Bemaßungen(TC_020513_DIN)
  6
Continuous
 62
     7
370
    25
100
AcDbLine
 10
198.5781115712726
 20
85.26363285514545
 30
0.0
 11
198.5781115712724
 21
60.00769040545951
 31
0.0
  0
LINE
  5
979
330
8BD
100
AcDbEntity
  8
Bemaßungen(TC_020513_DIN)
  6
Continuous
 62
     7
370
    25
100
AcDbLine
 10
227.5781115712726
 20
85.26363285514545
 30
0.0
 11
227.5781115712724
 21
60.00769040545933
 31
0.0
  0
LINE
  5
97A
330
8BD
100
AcDbEntity
  8
Bemaßungen(TC_020513_DIN)
  6
Continuous
 62
     7
370
    25
100
AcDbLine
 10
201.0781115712724
 20
62.00769040545949
 30
0.0
 11
225.0781115712725
 21
62.00769040545935
 31
0.0
  0
SOLID
  5
97B
330
8BD
100
AcDbEntity
  8
Bemaßungen(TC_020513_DIN)
  6
Continuous
 62
     7
100
AcDbTrace
 10
201.0781115712724
 20
62.42435707212616
 30
0.0
 11
201.0781115712724
 21
61.59102373879283
 31
0.0
 12
198.5781115712724
 22
62.00769040545951
 32
0.0
 13
198.5781115712724
 23
62.00769040545951
 33
0.0
  0
SOLID
  5
97C
330
8BD
100
AcDbEntity
  8
Bemaßungen(TC_020513_DIN)
  6
Continuous
 62
     7
100
AcDbTrace
 10
225.0781115712725
 20
62.42435707212601
 30
0.0
 11
225.0781115712724
 21
61.59102373879268
 31
0.0
 12
227.5781115712725
 22
62.00769040545933
 32
0.0
 13
227.5781115712725
 23
62.00769040545933
 33
0.0
  0
MTEXT
  5
97D
330
8BD
100
AcDbEntity
  8
Bemaßungen(TC_020513_DIN)
  6
Continuous
 62
     7
370
    25
100
AcDbMText
 10
210.537866005106
 20
66.38170131951129
 30
0.0
 40
3.5
 41
0.0
 71
     1
 72
     1
  1
\A1;29
  7
Aktuell-BSI
 73
     1
 44
1.0
1001
ACAD
1000
MTEXTBEGIN
1070
    73
1070
     1
1070
    44
1040
1.0
1070
    74
1070
     0
1000
MTEXTEND
  0
POINT
  5
97E
330
8BD
100
AcDbEntity
  8
Defpoints
  6
Continuous
 62
     0
100
AcDbPoint
 10
198.5781115712726
 20
86.26363285514544
 30
0.0
  0
POINT
  5
97F
330
8BD
100
AcDbEntity
  8
Defpoints
  6
Continuous
 62
     0
100
AcDbPoint
 10
227.5781115712726
 20
86.26363285514544
 30
0.0
  0
POINT
  5
980
330
8BD
100
AcDbEntity
  8
Defpoints
  6
Continuous
 62
     0
100
AcDbPoint
 10
227.5781115712725
 20
62.00769040545933
 30
0.0
  0
ENDBLK
  5
8C9
330
8BD
100
AcDbEntity
  8
0
100
AcDbBlockEnd
  0
BLOCK
  5
98D
330
982
100
AcDbEntity
  8
0
100
AcDbBlockBegin
  2
*D15
 70
     1
 10
0.0
 20
0.0
 30
0.0
  3
*D15
  1

  0
LINE
  5
A38
330
982
100
AcDbEntity
  8
Bemaßungen(TC_020513_DIN)
  6
Continuous
 62
     7
370
    25
100
AcDbLine
 10
230.0781115712736
 20
154.7536328551454
 30
0.0
 11
250.2403472306922
 21
154.7536328551454
 31
0.0
  0
LINE
  5
A39
330
982
100
AcDbEntity
  8
Bemaßungen(TC_020513_DIN)
  6
Continuous
 62
     7
370
    25
100
AcDbLine
 10
223.5781115712711
 20
84.25363285514544
 30
0.0
 11
250.2403472306922
 21
84.25363285514542
 31
0.0
  0
LINE
  5
A3A
330
982
100
AcDbEntity
  8
Bemaßungen(TC_020513_DIN)
  6
Continuous
 62
     7
370
    25
100
AcDbLine
 10
248.2403472306922
 20
152.2536328551454
 30
0.0
 11
248.2403472306922
 21
86.75363285514542
 31
0.0
  0
SOLID
  5
A3B
330
982
100
AcDbEntity
  8
Bemaßungen(TC_020513_DIN)
  6
Continuous
 62
     7
100
AcDbTrace
 10
247.8236805640255
 20
152.2536328551454
 30
0.0
 11
248.6570138973589
 21
152.2536328551454
 31
0.0
 12
248.2403472306922
 22
154.7536328551454
 32
0.0
 13
248.2403472306922
 23
154.7536328551454
 33
0.0
  0
SOLID
  5
A3C
330
982
100
AcDbEntity
  8
Bemaßungen(TC_020513_DIN)
  6
Continuous
 62
     7
100
AcDbTrace
 10
247.8236805640255
 20
86.75363285514542
 30
0.0
 11
248.6570138973589
 21
86.75363285514542
 31
0.0
 12
248.2403472306922
 22
84.25363285514542
 32
0.0
 13
248.2403472306922
 23
84.25363285514542
 33
0.0
  0
MTEXT
  5
A3D
330
982
100
AcDbEntity
  8
Bemaßungen(TC_020513_DIN)
  6
Continuous
 62
     7
370
    25
100
AcDbMText
 10
243.2336623739391
 20
114.9591239874783
 30
0.0
 40
3.5
 41
0.0
 71
     1
 72
     1
  1
\A1;70,5
  7
Aktuell-BSI
 11
0.0000000000000001
 21
1.0
 31
0.0
 73
     1
 44
1.0
1001
ACAD
1000
MTEXTBEGIN
1070
    73
1070
     1
1070
    44
1040
1.0
1070
    74
1070
     0
1000
MTEXTEND
  0
POINT
  5
A3E
330
982
100
AcDbEntity
  8
Defpoints
  6
Continuous
 62
     0
100
AcDbPoint
 10
229.0781115712736
 20
154.7536328551454
 30
0.0
  0
POINT
  5
A3F
330
982
100
AcDbEntity
  8
Defpoints
  6
Continuous
 62
     0
100
AcDbPoint
 10
222.5781115712711
 20
84.25363285514544
 30
0.0
  0
POINT
  5
A40
330
982
100
AcDbEntity
  8
Defpoints
  6
Continuous
 62
     0
100
AcDbPoint
 10
248.2403472306922
 20
84.25363285514542
 30
0.0
  0
ENDBLK
  5
98E
330
982
100
AcDbEntity
  8
0
100
AcDbBlockEnd
  0
BLOCK
  5
A4F
330
A44
100
AcDbEntity
  8
0
100
AcDbBlockBegin
  2
*D16
 70
     1
 10
0.0
 20
0.0
 30
0.0
  3
*D16
  1

  0
LINE
  5
AFF
330
A44
100
AcDbEntity
  8
Bemaßungen(TC_020513_DIN)
  6
Continuous
 62
     7
370
    25
100
AcDbLine
 10
80.00783623347325
 20
158.2536328551454
 30
0.0
 11
80.00783623347325
 21
167.5920767395822
 31
0.0
  0
LINE
  5
B00
330
A44
100
AcDbEntity
  8
Bemaßungen(TC_020513_DIN)
  6
Continuous
 62
     7
370
    25
100
AcDbLine
 10
110.0078362334732
 20
158.2536328551454
 30
0.0
 11
110.0078362334732
 21
167.5920767395822
 31
0.0
  0
LINE
  5
B01
330
A44
100
AcDbEntity
  8
Bemaßungen(TC_020513_DIN)
  6
Continuous
 62
     7
370
    25
100
AcDbLine
 10
82.50783623347325
 20
165.5920767395822
 30
0.0
 11
107.5078362334732
 21
165.5920767395822
 31
0.0
  0
SOLID
  5
B02
330
A44
100
AcDbEntity
  8
Bemaßungen(TC_020513_DIN)
  6
Continuous
 62
     7
100
AcDbTrace
 10
82.50783623347325
 20
166.0087434062489
 30
0.0
 11
82.50783623347325
 21
165.1754100729156
 31
0.0
 12
80.00783623347325
 22
165.5920767395822
 32
0.0
 13
80.00783623347325
 23
165.5920767395822
 33
0.0
  0
SOLID
  5
B03
330
A44
100
AcDbEntity
  8
Bemaßungen(TC_020513_DIN)
  6
Continuous
 62
     7
100
AcDbTrace
 10
107.5078362334732
 20
166.0087434062489
 30
0.0
 11
107.5078362334732
 21
165.1754100729156
 31
0.0
 12
110.0078362334732
 22
165.5920767395822
 32
0.0
 13
110.0078362334732
 23
165.5920767395822
 33
0.0
  0
MTEXT
  5
B04
330
A44
100
AcDbEntity
  8
Bemaßungen(TC_020513_DIN)
  6
Continuous
 62
     7
370
    25
100
AcDbMText
 10
92.50817729759331
 20
169.9684751024745
 30
0.0
 40
3.5
 41
0.0
 71
     1
 72
     1
  1
\A1;30
  7
Aktuell-BSI
 73
     1
 44
1.0
1001
ACAD
1000
MTEXTBEGIN
1070
    73
1070
     1
1070
    44
1040
1.0
1070
    74
1070
     0
1000
MTEXTEND
  0
POINT
  5
B05
330
A44
100
AcDbEntity
  8
Defpoints
  6
Continuous
 62
     0
100
AcDbPoint
 10
80.00783623347325
 20
157.2536328551454
 30
0.0
  0
POINT
  5
B06
330
A44
100
AcDbEntity
  8
Defpoints
  6
Continuous
 62
     0
100
AcDbPoint
 10
110.0078362334732
 20
157.2536328551454
 30
0.0
  0
POINT
  5
B07
330
A44
100
AcDbEntity
  8
Defpoints
  6
Continuous
 62
     0
100
AcDbPoint
 10
110.0078362334732
 20
165.5920767395822
 30
0.0
  0
ENDBLK
  5
A50
330
A44
100
AcDbEntity
  8
0
100
AcDbBlockEnd
  0
BLOCK
  5
B14
330
B09
100
AcDbEntity
  8
0
100
AcDbBlockBegin
  2
*D17
 70
     1
 10
0.0
 20
0.0
 30
0.0
  3
*D17
  1

  0
LINE
  5
BC4
330
B09
100
AcDbEntity
  8
Bemaßungen(TC_020513_DIN)
  6
Continuous
 62
     7
370
    25
100
AcDbLine
 10
203.0781115712784
 20
155.7536328551454
 30
0.0
 11
203.0781115712784
 21
167.5920767395822
 31
0.0
  0
LINE
  5
BC5
330
B09
100
AcDbEntity
  8
Bemaßungen(TC_020513_DIN)
  6
Continuous
 62
     7
370
    25
100
AcDbLine
 10
223.0781115712785
 20
155.7536328551454
 30
0.0
 11
223.0781115712785
 21
167.5920767395822
 31
0.0
  0
LINE
  5
BC6
330
B09
100
AcDbEntity
  8
Bemaßungen(TC_020513_DIN)
  6
Continuous
 62
     7
370
    25
100
AcDbLine
 10
205.5781115712784
 20
165.5920767395822
 30
0.0
 11
220.5781115712785
 21
165.5920767395822
 31
0.0
  0
SOLID
  5
BC7
330
B09
100
AcDbEntity
  8
Bemaßungen(TC_020513_DIN)
  6
Continuous
 62
     7
100
AcDbTrace
 10
205.5781115712784
 20
166.0087434062489
 30
0.0
 11
205.5781115712784
 21
165.1754100729156
 31
0.0
 12
203.0781115712784
 22
165.5920767395822
 32
0.0
 13
203.0781115712784
 23
165.5920767395822
 33
0.0
  0
SOLID
  5
BC8
330
B09
100
AcDbEntity
  8
Bemaßungen(TC_020513_DIN)
  6
Continuous
 62
     7
100
AcDbTrace
 10
220.5781115712785
 20
166.0087434062489
 30
0.0
 11
220.5781115712785
 21
165.1754100729156
 31
0.0
 12
223.0781115712785
 22
165.5920767395822
 32
0.0
 13
223.0781115712785
 23
165.5920767395822
 33
0.0
  0
MTEXT
  5
BC9
330
B09
100
AcDbEntity
  8
Bemaßungen(TC_020513_DIN)
  6
Continuous
 62
     7
370
    25
100
AcDbMText
 10
207.9415153911966
 20
169.9660876536341
 30
0.0
 40
3.5
 41
0.0
 71
     1
 72
     1
  1
\A1; M20
  7
Aktuell-BSI
 73
     1
 44
1.0
1001
ACAD
1000
MTEXTBEGIN
1070
    73
1070
     1
1070
    44
1040
1.0
1070
    74
1070
     0
1000
MTEXTEND
  0
POINT
  5
BCA
330
B09
100
AcDbEntity
  8
Defpoints
  6
Continuous
 62
     0
100
AcDbPoint
 10
203.0781115712784
 20
154.7536328551454
 30
0.0
  0
POINT
  5
BCB
330
B09
100
AcDbEntity
  8
Defpoints
  6
Continuous
 62
     0
100
AcDbPoint
 10
223.0781115712785
 20
154.7536328551454
 30
0.0
  0
POINT
  5
BCC
330
B09
100
AcDbEntity
  8
Defpoints
  6
Continuous
 62
     0
100
AcDbPoint
 10
223.0781115712785
 20
165.5920767395822
 30
0.0
  0
ENDBLK
  5
B15
330
B09
100
AcDbEntity
  8
0
100
AcDbBlockEnd
  0
ENDSEC
  0
SECTION
  2
ENTITIES
  0
INSERT
  5
153
330
37
100
AcDbEntity
  8
0
100
AcDbBlockReference
  2
Ränder Ilme Rahmen A4 quer
 10
0.0
 20
0.0
 30
0.0
  0
INSERT
  5
1C7
330
37
100
AcDbEntity
  8
0
100
AcDbBlockReference
 66
     1
  2
Schriftfelder Ilme
 10
87.01981004969702
 20
-0.0006400926262484
 30
0.0
  0
ATTRIB
  5
1C9
330
1C7
100
AcDbEntity
  8
Symbole(ISO)
 62
     7
100
AcDbText
 10
138.0
 20
11.74999997019763
 30
0.0
 40
4.000000059604644
  1
hood top entry 2xM20
 41
1.199999928474426
  7
Kopie von TC 5 mm
 11
138.0
 21
13.74999999999995
 31
0.0
100
AcDbAttribute
  2
BEZEICHNUNG
 70
     0
 74
     2
  0
ATTRIB
  5
1CA
330
1C7
100
AcDbEntity
  8
Symbole(ISO)
 62
     7
100
AcDbText
 10
251.3054571416743
 20
12.49999999999995
 30
0.0
 40
5.0
  1
1:1
 41
0.899999976158142
  7
TC 5 mm
 72
     1
 11
255.675
 21
14.99999999999995
 31
0.0
100
AcDbAttribute
  2
FirstViewScale
 70
     0
 74
     2
  0
ATTRIB
  5
1CB
330
1C7
100
AcDbEntity
  8
Symbole(ISO)
 62
     7
100
AcDbText
 10
138.0
 20
19.24999997019763
 30
0.0
 40
4.000000059604644
  1
MZFV 25 L220
 41
1.199999928474426
  7
Kopie von TC 5 mm
 11
138.0
 21
21.24999999999996
 31
0.0
100
AcDbAttribute
  2
BAUTEILNUMMER
 70
     0
 74
     2
  0
SEQEND
  5
1C8
330
1C7
100
AcDbEntity
  8
0
  0
LINE
  5
1CC
330
37
100
AcDbEntity
  8
Sichtbare Kanten(TC_020513_DIN)
100
AcDbLine
 10
79.13272518096575
 20
141.0365366731881
 30
0.0
 11
80.13272518096574
 21
140.4598700065214
 31
0.0
  0
ARC
  5
1CD
330
37
100
AcDbEntity
  8
Sichtbare Kanten(TC_020513_DIN)
100
AcDbCircle
 10
80.00783623347325
 20
140.2432995773437
 30
0.0
 40
0.2500000000000013
100
AcDbArc
 50
240.0293843500169
 51
60.02938435001691
  0
LINE
  5
1CE
330
37
100
AcDbEntity
  8
Sichtbare Kanten(TC_020513_DIN)
100
AcDbLine
 10
79.88294728598079
 20
140.026729148166
 30
0.0
 11
79.25783623347327
 21
140.387209855112
 31
0.0
  0
LINE
  5
1CF
330
37
100
AcDbEntity
  8
Sichtbare Kanten(TC_020513_DIN)
100
AcDbLine
 10
79.25783623347327
 20
140.387209855112
 30
0.0
 11
79.25783623347327
 21
139.5136328551457
 31
0.0
  0
LINE
  5
1D0
330
37
100
AcDbEntity
  8
Sichtbare Kanten(TC_020513_DIN)
100
AcDbLine
 10
79.25783623347327
 20
139.5136328551457
 30
0.0
 11
80.00783623347325
 21
139.5136328551457
 31
0.0
  0
ARC
  5
1D1
330
37
100
AcDbEntity
  8
Sichtbare Kanten(TC_020513_DIN)
100
AcDbCircle
 10
80.00783623347325
 20
139.2636328551458
 30
0.0
 40
0.2500000000000035
100
AcDbArc
 50
270.0
 51
90.0
  0
LINE
  5
1D2
330
37
100
AcDbEntity
  8
Sichtbare Kanten(TC_020513_DIN)
100
AcDbLine
 10
80.00783623347325
 20
139.0136328551458
 30
0.0
 11
79.25783623347327
 21
139.0136328551458
 31
0.0
  0
LINE
  5
1D3
330
37
100
AcDbEntity
  8
Sichtbare Kanten(TC_020513_DIN)
100
AcDbLine
 10
79.25783623347327
 20
139.0136328551458
 30
0.0
 11
79.25783623347327
 21
138.14005585518
 31
0.0
  0
LINE
  5
1D4
330
37
100
AcDbEntity
  8
Sichtbare Kanten(TC_020513_DIN)
100
AcDbLine
 10
79.25783623347327
 20
138.14005585518
 30
0.0
 11
79.88294728598081
 21
138.5005365621259
 31
0.0
  0
ARC
  5
1D5
330
37
100
AcDbEntity
  8
Sichtbare Kanten(TC_020513_DIN)
100
AcDbCircle
 10
80.00783623347325
 20
138.2839661329482
 30
0.0
 40
0.2499999999999947
100
AcDbArc
 50
299.9706156499795
 51
119.9706156499796
  0
LINE
  5
1D6
330
37
100
AcDbEntity
  8
Sichtbare Kanten(TC_020513_DIN)
100
AcDbLine
 10
80.13272518096572
 20
138.0673957037705
 30
0.0
 11
79.13272518096573
 21
137.4907290371039
 31
0.0
  0
ARC
  5
1D7
330
37
100
AcDbEntity
  8
Sichtbare Kanten(TC_020513_DIN)
100
AcDbCircle
 10
79.00783623347326
 20
137.7072994662817
 30
0.0
 40
0.2500000000000067
100
AcDbArc
 50
180.0
 51
299.9706156499775
  0
LINE
  5
1D8
330
37
100
AcDbEntity
  8
Sichtbare Kanten(TC_020513_DIN)
100
AcDbLine
 10
78.75783623347325
 20
137.7072994662817
 30
0.0
 11
78.75783623347327
 21
140.8199662440104
 31
0.0
  0
ARC
  5
1D9
330
37
100
AcDbEntity
  8
Sichtbare Kanten(TC_020513_DIN)
100
AcDbCircle
 10
79.00783623347326
 20
140.8199662440104
 30
0.0
 40
0.2499999999999947
100
AcDbArc
 50
60.02938435001311
 51
180.0
  0
ARC
  5
1DA
330
37
100
AcDbEntity
  8
Sichtbare Kanten(TC_020513_DIN)
100
AcDbCircle
 10
74.00783623347326
 20
140.2536328551454
 30
0.0
 40
0.2499999999999991
100
AcDbArc
 50
0.0
 51
180.0
  0
LINE
  5
1DB
330
37
100
AcDbEntity
  8
Sichtbare Kanten(TC_020513_DIN)
100
AcDbLine
 10
74.25783623347327
 20
140.2536328551454
 30
0.0
 11
74.25783623347327
 21
138.2736328551454
 31
0.0
  0
ARC
  5
1DC
330
37
100
AcDbEntity
  8
Sichtbare Kanten(TC_020513_DIN)
100
AcDbCircle
 10
74.00783623347326
 20
138.2736328551454
 30
0.0
 40
0.2499999999999991
100
AcDbArc
 50
180.0
 51
0.0
  0
LINE
  5
1DD
330
37
100
AcDbEntity
  8
Sichtbare Kanten(TC_020513_DIN)
100
AcDbLine
 10
73.75783623347327
 20
138.2736328551454
 30
0.0
 11
73.75783623347327
 21
140.2536328551454
 31
0.0
  0
LINE
  5
1DE
330
37
100
AcDbEntity
  8
Sichtbare Kanten(TC_020513_DIN)
100
AcDbLine
 10
77.00783623347327
 20
142.7236328551462
 30
0.0
 11
83.00783623347326
 21
139.2636328551454
 31
0.0
  0
LINE
  5
1DF
330
37
100
AcDbEntity
  8
Sichtbare Kanten(TC_020513_DIN)
100
AcDbLine
 10
83.00783623347326
 20
139.2636328551454
 30
0.0
 11
77.00783623347327
 21
135.8036328551461
 31
0.0
  0
LINE
  5
1E0
330
37
100
AcDbEntity
  8
Sichtbare Kanten(TC_020513_DIN)
100
AcDbLine
 10
77.00783623347327
 20
135.8036328551461
 30
0.0
 11
71.00783623347327
 21
139.2636328551454
 31
0.0
  0
LINE
  5
1E1
330
37
100
AcDbEntity
  8
Sichtbare Kanten(TC_020513_DIN)
100
AcDbLine
 10
71.00783623347327
 20
139.2636328551454
 30
0.0
 11
77.00783623347327
 21
142.7236328551462
 31
0.0
  0
LINE
  5
1E2
330
37
100
AcDbEntity
  8
Sichtbare Kanten(TC_020513_DIN)
100
AcDbLine
 10
77.00783623347328
 20
143.0122225773779
 30
0.0
 11
83.50828083850004
 21
139.2636328551458
 31
0.0
  0
LINE
  5
1E3
330
37
100
AcDbEntity
  8
Sichtbare Kanten(TC_020513_DIN)
100
AcDbLine
 10
83.50828083850004
 20
139.2636328551458
 30
0.0
 11
77.00783623347326
 21
135.5150431329144
 31
0.0
  0
LINE
  5
1E4
330
37
100
AcDbEntity
  8
Sichtbare Kanten(TC_020513_DIN)
100
AcDbLine
 10
77.00783623347326
 20
135.5150431329144
 30
0.0
 11
70.50739162844651
 21
139.2636328551458
 31
0.0
  0
LINE
  5
1E5
330
37
100
AcDbEntity
  8
Sichtbare Kanten(TC_020513_DIN)
100
AcDbLine
 10
70.50739162844651
 20
139.2636328551458
 30
0.0
 11
77.00783623347328
 21
143.0122225773779
 31
0.0
  0
ARC
  5
1E6
330
37
100
AcDbEntity
  8
Sichtbare Kanten(TC_020513_DIN)
100
AcDbCircle
 10
75.00783623347327
 20
140.8199662440104
 30
0.0
 40
0.2500000000000013
100
AcDbArc
 50
0.0
 51
180.0
  0
LINE
  5
1E7
330
37
100
AcDbEntity
  8
Sichtbare Kanten(TC_020513_DIN)
100
AcDbLine
 10
75.25783623347326
 20
140.8199662440104
 30
0.0
 11
75.25783623347326
 21
137.8517225218467
 31
0.0
  0
LINE
  5
1E8
330
37
100
AcDbEntity
  8
Sichtbare Kanten(TC_020513_DIN)
100
AcDbLine
 10
75.25783623347326
 20
137.8517225218467
 30
0.0
 11
77.13272518096573
 21
136.7705365621263
 31
0.0
  0
ARC
  5
1E9
330
37
100
AcDbEntity
  8
Sichtbare Kanten(TC_020513_DIN)
100
AcDbCircle
 10
77.00783623347326
 20
136.5539661329485
 30
0.0
 40
0.2500000000000025
100
AcDbArc
 50
240.0293852037954
 51
60.02938435002427
  0
LINE
  5
1EA
330
37
100
AcDbEntity
  8
Sichtbare Kanten(TC_020513_DIN)
100
AcDbLine
 10
76.8829472859808
 20
136.3373957037708
 30
0.0
 11
74.88294728598081
 21
137.4907290371039
 31
0.0
  0
ARC
  5
1EB
330
37
100
AcDbEntity
  8
Sichtbare Kanten(TC_020513_DIN)
100
AcDbCircle
 10
75.00783623347325
 20
137.7072994662816
 30
0.0
 40
0.2499999999999847
100
AcDbArc
 50
180.0
 51
240.0293843500239
  0
LINE
  5
1EC
330
37
100
AcDbEntity
  8
Sichtbare Kanten(TC_020513_DIN)
100
AcDbLine
 10
74.75783623347325
 20
137.7072994662817
 30
0.0
 11
74.75783623347327
 21
140.8199662440104
 31
0.0
  0
ARC
  5
1ED
330
37
100
AcDbEntity
  8
Sichtbare Kanten(TC_020513_DIN)
100
AcDbCircle
 10
76.00783623347327
 20
141.396632910677
 30
0.0
 40
0.2500000000000013
100
AcDbArc
 50
36.74749782260336
 51
180.0
  0
LINE
  5
1EE
330
37
100
AcDbEntity
  8
Sichtbare Kanten(TC_020513_DIN)
100
AcDbLine
 10
76.20815621884843
 20
141.5462053127413
 30
0.0
 11
77.00783623347327
 21
140.4752063408484
 31
0.0
  0
LINE
  5
1EF
330
37
100
AcDbEntity
  8
Sichtbare Kanten(TC_020513_DIN)
100
AcDbLine
 10
77.00783623347327
 20
140.4752063408484
 30
0.0
 11
77.80751624809809
 21
141.5462053127413
 31
0.0
  0
ARC
  5
1F0
330
37
100
AcDbEntity
  8
Sichtbare Kanten(TC_020513_DIN)
100
AcDbCircle
 10
78.00783623347327
 20
141.396632910677
 30
0.0
 40
0.2500000000000023
100
AcDbArc
 50
0.0
 51
143.2525021773978
  0
LINE
  5
1F1
330
37
100
AcDbEntity
  8
Sichtbare Kanten(TC_020513_DIN)
100
AcDbLine
 10
78.25783623347327
 20
141.396632910677
 30
0.0
 11
78.25783623347327
 21
137.1306327996151
 31
0.0
  0
ARC
  5
1F2
330
37
100
AcDbEntity
  8
Sichtbare Kanten(TC_020513_DIN)
100
AcDbCircle
 10
78.00783623347327
 20
137.1306327996151
 30
0.0
 40
0.2499999999999991
100
AcDbArc
 50
180.0
 51
0.0
  0
LINE
  5
1F3
330
37
100
AcDbEntity
  8
Sichtbare Kanten(TC_020513_DIN)
100
AcDbLine
 10
77.75783623347326
 20
137.1306327996151
 30
0.0
 11
77.75783623347326
 21
140.6439539753252
 31
0.0
  0
LINE
  5
1F4
330
37
100
AcDbEntity
  8
Sichtbare Kanten(TC_020513_DIN)
100
AcDbLine
 10
77.75783623347326
 20
140.6439539753252
 30
0.0
 11
77.00783623347327
 21
139.639490672217
 31
0.0
  0
LINE
  5
1F5
330
37
100
AcDbEntity
  8
Sichtbare Kanten(TC_020513_DIN)
100
AcDbLine
 10
77.00783623347327
 20
139.639490672217
 30
0.0
 11
76.25783623347327
 21
140.6439539753252
 31
0.0
  0
LINE
  5
1F6
330
37
100
AcDbEntity
  8
Sichtbare Kanten(TC_020513_DIN)
100
AcDbLine
 10
76.25783623347327
 20
140.6439539753252
 30
0.0
 11
76.25783623347325
 21
138.2736328551454
 31
0.0
  0
ARC
  5
1F7
330
37
100
AcDbEntity
  8
Sichtbare Kanten(TC_020513_DIN)
100
AcDbCircle
 10
76.00783623347327
 20
138.2736328551454
 30
0.0
 40
0.2499999999999991
100
AcDbArc
 50
180.0
 51
0.0
  0
LINE
  5
1F8
330
37
100
AcDbEntity
  8
Sichtbare Kanten(TC_020513_DIN)
100
AcDbLine
 10
75.75783623347327
 20
138.2736328551454
 30
0.0
 11
75.75783623347327
 21
141.396632910677
 31
0.0
  0
LINE
  5
1F9
330
37
100
AcDbEntity
  8
Sichtbare Kanten(TC_020513_DIN)
100
AcDbLine
 10
56.85435967679859
 20
118.2636328551454
 30
0.0
 11
60.98903994981959
 21
146.2636328551454
 31
0.0
  0
LINE
  5
1FA
330
37
100
AcDbEntity
  8
Sichtbare Kanten(TC_020513_DIN)
100
AcDbLine
 10
129.0266325171269
 20
146.2636328551454
 30
0.0
 11
133.1613127901479
 21
118.2636328551454
 31
0.0
  0
ELLIPSE
  5
1FB
330
37
100
AcDbEntity
  8
Sichtbare Kanten(TC_020513_DIN)
100
AcDbEllipse
 10
62.59220595998819
 20
145.2636328551454
 30
0.0
 11
1.638382181116936
 21
1.414213562373179
 31
0.0
210
0.0
220
0.0
230
1.0
 40
0.8631768452272446
 41
0.7853981633974066
 42
1.832595714593999
  0
ELLIPSE
  5
1FC
330
37
100
AcDbEntity
  8
Sichtbare Kanten(TC_020513_DIN)
100
AcDbEllipse
 10
127.4234665069583
 20
145.2636328551454
 30
0.0
 11
1.63838218111681
 21
-1.414213562373325
 31
0.0
210
0.0
220
0.0
230
1.0
 40
0.8631768452272446
 41
1.308996938995896
 42
2.356194490192512
  0
ELLIPSE
  5
1FD
330
37
100
AcDbEntity
  8
Sichtbare Kanten(TC_020513_DIN)
100
AcDbEllipse
 10
58.75285999218299
 20
119.2636328551454
 30
0.0
 11
-1.63838218111698
 21
-1.414213562373109
 31
0.0
210
0.0
220
0.0
230
1.0
 40
0.8631768452272446
 41
6.021385919380437
 42
7.068583470577027
  0
ELLIPSE
  5
1FE
330
37
100
AcDbEntity
  8
Sichtbare Kanten(TC_020513_DIN)
100
AcDbEllipse
 10
131.2628124747635
 20
119.2636328551454
 30
0.0
 11
-1.638382181116854
 21
1.414213562373254
 31
0.0
210
0.0
220
0.0
230
1.0
 40
0.8631768452272449
 41
2.356194490192475
 42
3.4033920413891
  0
LINE
  5
1FF
330
37
100
AcDbEntity
  8
Sichtbare Kanten(TC_020513_DIN)
100
AcDbLine
 10
134.0228362334732
 20
114.2636328551454
 30
0.0
 11
132.001148237803
 21
114.2636328551454
 31
0.0
  0
LINE
  5
200
330
37
100
AcDbEntity
  8
Sichtbare Kanten(TC_020513_DIN)
100
AcDbLine
 10
134.0228362334732
 20
114.2636328551454
 30
0.0
 11
128.2959841998512
 21
153.0457989122702
 31
0.0
  0
ARC
  5
201
330
37
100
AcDbEntity
  8
Sichtbare Kanten(TC_020513_DIN)
100
AcDbCircle
 10
126.3174395339252
 20
152.7536328551454
 30
0.0
 40
2.000000000000027
100
AcDbArc
 50
8.400000000000476
 51
89.99999999999948
  0
ARC
  5
202
330
37
100
AcDbEntity
  8
Sichtbare Kanten(TC_020513_DIN)
100
AcDbCircle
 10
63.69823293302132
 20
152.7536328551454
 30
0.0
 40
2.00000000000001
100
AcDbArc
 50
90.0
 51
171.5999999999994
  0
LINE
  5
203
330
37
100
AcDbEntity
  8
Sichtbare Kanten(TC_020513_DIN)
100
AcDbLine
 10
61.71968826709532
 20
153.0457989122702
 30
0.0
 11
55.99283623347325
 21
114.2636328551454
 31
0.0
  0
LINE
  5
204
330
37
100
AcDbEntity
  8
Sichtbare Kanten(TC_020513_DIN)
100
AcDbLine
 10
58.01452422914352
 20
114.2636328551454
 30
0.0
 11
55.99283623347325
 21
114.2636328551454
 31
0.0
  0
LINE
  5
205
330
37
100
AcDbEntity
  8
Sichtbare Kanten(TC_020513_DIN)
100
AcDbLine
 10
126.3174395339252
 20
154.7536328551454
 30
0.0
 11
63.69823293302132
 21
154.7536328551454
 31
0.0
  0
LINE
  5
206
330
37
100
AcDbEntity
  8
Sichtbare Kanten(TC_020513_DIN)
100
AcDbLine
 10
133.1613127901479
 20
118.2636328551454
 30
0.0
 11
56.85435967679859
 21
118.2636328551454
 31
0.0
  0
LINE
  5
207
330
37
100
AcDbEntity
  8
Sichtbare Kanten(TC_020513_DIN)
100
AcDbLine
 10
60.98903994981959
 20
146.2636328551454
 30
0.0
 11
129.0266325171269
 21
146.2636328551454
 31
0.0
  0
LINE
  5
208
330
37
100
AcDbEntity
  8
Sichtbare Kanten(TC_020513_DIN)
100
AcDbLine
 10
62.88754026520397
 20
147.2636328551454
 30
0.0
 11
127.1281322017425
 21
147.2636328551454
 31
0.0
  0
LINE
  5
209
330
37
100
AcDbEntity
  8
Sichtbare Kanten(TC_020513_DIN)
100
AcDbLine
 10
131.5581467799793
 20
117.2636328551454
 30
0.0
 11
58.45752568696719
 21
117.2636328551454
 31
0.0
  0
LINE
  5
20A
330
37
100
AcDbEntity
  8
Sichtbare Kanten(TC_020513_DIN)
100
AcDbLine
 10
51.00783623347325
 20
93.26363285514544
 30
0.0
 11
51.00783623347325
 21
90.26363285514543
 31
0.0
  0
LINE
  5
20B
330
37
100
AcDbEntity
  8
Sichtbare Kanten(TC_020513_DIN)
100
AcDbLine
 10
51.00783623347325
 20
93.26363285514544
 30
0.0
 11
55.42891254857008
 21
93.26363285514544
 31
0.0
  0
LINE
  5
20C
330
37
100
AcDbEntity
  8
Sichtbare Kanten(TC_020513_DIN)
100
AcDbLine
 10
51.00783623347325
 20
90.26363285514543
 30
0.0
 11
55.35559412781431
 21
90.26363285514543
 31
0.0
  0
LINE
  5
20D
330
37
100
AcDbEntity
  8
Sichtbare Kanten(TC_020513_DIN)
100
AcDbLine
 10
139.0078362334732
 20
93.26363285514544
 30
0.0
 11
139.0078362334732
 21
90.26363285514543
 31
0.0
  0
LINE
  5
20E
330
37
100
AcDbEntity
  8
Sichtbare Kanten(TC_020513_DIN)
100
AcDbLine
 10
134.5867599183764
 20
93.26363285514544
 30
0.0
 11
139.0078362334732
 21
93.26363285514544
 31
0.0
  0
LINE
  5
20F
330
37
100
AcDbEntity
  8
Sichtbare Kanten(TC_020513_DIN)
100
AcDbLine
 10
134.6600783391322
 20
90.26363285514543
 30
0.0
 11
139.0078362334732
 21
90.26363285514543
 31
0.0
  0
ELLIPSE
  5
210
330
37
100
AcDbEntity
  8
Sichtbare Kanten(TC_020513_DIN)
100
AcDbEllipse
 10
60.64181023563763
 20
101.9137655824792
 30
0.0
 11
5.001866565402878
 21
0.0610394743223344
 31
0.0
210
0.0
220
0.0
230
1.0
 40
0.57700578485143
 41
1.549650056693691
 42
1.619875583603489
  0
LINE
  5
211
330
37
100
AcDbEntity
  8
Sichtbare Kanten(TC_020513_DIN)
100
AcDbLine
 10
129.3612431645573
 20
104.5118417938325
 30
0.0
 11
60.36124316455733
 21
104.5118417938325
 31
0.0
  0
ELLIPSE
  5
212
330
37
100
AcDbEntity
  8
Sichtbare Kanten(TC_020513_DIN)
100
AcDbEllipse
 10
129.3738622313089
 20
101.9137655824792
 30
0.0
 11
5.001866565402878
 21
-0.0610394743223359
 31
0.0
210
0.0
220
0.0
230
1.0
 40
0.5770057848514301
 41
1.580360419400674
 42
1.591942596896103
  0
LINE
  5
213
330
37
100
AcDbEntity
  8
Sichtbare Kanten(TC_020513_DIN)
100
AcDbLine
 10
60.71236091890416
 20
104.8005169284273
 30
0.0
 11
129.3033115480424
 21
104.8005169284273
 31
0.0
  0
POLYLINE
  5
214
330
37
100
AcDbEntity
  8
Sichtbare Kanten(TC_020513_DIN)
100
AcDb2dPolyline
 66
     1
 10
0.0
 20
0.0
 30
0.0
 70
   128
  0
VERTEX
  5
215
330
214
100
AcDbEntity
  8
Sichtbare Kanten(TC_020513_DIN)
100
AcDbVertex
100
AcDb2dVertex
 10
129.361242662764
 20
104.8003226134462
 30
0.0
  0
VERTEX
  5
216
330
214
100
AcDbEntity
  8
Sichtbare Kanten(TC_020513_DIN)
100
AcDbVertex
100
AcDb2dVertex
 10
129.6756881583695
 20
104.7982269141359
 30
0.0
  0
VERTEX
  5
218
330
214
100
AcDbEntity
  8
Sichtbare Kanten(TC_020513_DIN)
100
AcDbVertex
100
AcDb2dVertex
 10
129.9942201484207
 20
104.7961121413393
 30
0.0
  0
VERTEX
  5
219
330
214
100
AcDbEntity
  8
Sichtbare Kanten(TC_020513_DIN)
100
AcDbVertex
100
AcDb2dVertex
 10
130.3142255652909
 20
104.7939949843568
 30
0.0
  0
VERTEX
  5
21A
330
214
100
AcDbEntity
  8
Sichtbare Kanten(TC_020513_DIN)
100
AcDbVertex
100
AcDb2dVertex
 10
130.6330961097245
 20
104.7918969008607
 30
0.0
  0
VERTEX
  5
21B
330
214
100
AcDbEntity
  8
Sichtbare Kanten(TC_020513_DIN)
100
AcDbVertex
100
AcDb2dVertex
 10
130.9482163299088
 20
104.7898298117799
 30
0.0
  0
VERTEX
  5
21C
330
214
100
AcDbEntity
  8
Sichtbare Kanten(TC_020513_DIN)
100
AcDbVertex
100
AcDb2dVertex
 10
131.2569731582169
 20
104.7878151747865
 30
0.0
  0
VERTEX
  5
21D
330
214
100
AcDbEntity
  8
Sichtbare Kanten(TC_020513_DIN)
100
AcDbVertex
100
AcDb2dVertex
 10
131.5568941939835
 20
104.7858672949953
 30
0.0
  0
VERTEX
  5
21E
330
214
100
AcDbEntity
  8
Sichtbare Kanten(TC_020513_DIN)
100
AcDbVertex
100
AcDb2dVertex
 10
131.8460768569474
 20
104.7839957091493
 30
0.0
  0
VERTEX
  5
21F
330
214
100
AcDbEntity
  8
Sichtbare Kanten(TC_020513_DIN)
100
AcDbVertex
100
AcDb2dVertex
 10
132.1227759231095
 20
104.7822123381776
 30
0.0
  0
VERTEX
  5
220
330
214
100
AcDbEntity
  8
Sichtbare Kanten(TC_020513_DIN)
100
AcDbVertex
100
AcDb2dVertex
 10
132.3852414000992
 20
104.7805267188234
 30
0.0
  0
VERTEX
  5
221
330
214
100
AcDbEntity
  8
Sichtbare Kanten(TC_020513_DIN)
100
AcDbVertex
100
AcDb2dVertex
 10
132.6317280639176
 20
104.7789483878297
 30
0.0
  0
VERTEX
  5
222
330
214
100
AcDbEntity
  8
Sichtbare Kanten(TC_020513_DIN)
100
AcDbVertex
100
AcDb2dVertex
 10
132.8604906905655
 20
104.7774916503114
 30
0.0
  0
VERTEX
  5
223
330
214
100
AcDbEntity
  8
Sichtbare Kanten(TC_020513_DIN)
100
AcDbVertex
100
AcDb2dVertex
 10
133.0742758620743
 20
104.7761326644105
 30
0.0
  0
VERTEX
  5
224
330
214
100
AcDbEntity
  8
Sichtbare Kanten(TC_020513_DIN)
100
AcDbVertex
100
AcDb2dVertex
 10
133.2764357436661
 20
104.774849972455
 30
0.0
  0
VERTEX
  5
225
330
214
100
AcDbEntity
  8
Sichtbare Kanten(TC_020513_DIN)
100
AcDbVertex
100
AcDb2dVertex
 10
133.4650319922928
 20
104.7736578795595
 30
0.0
  0
VERTEX
  5
226
330
214
100
AcDbEntity
  8
Sichtbare Kanten(TC_020513_DIN)
100
AcDbVertex
100
AcDb2dVertex
 10
133.6381286490921
 20
104.772568306653
 30
0.0
  0
VERTEX
  5
227
330
214
100
AcDbEntity
  8
Sichtbare Kanten(TC_020513_DIN)
100
AcDbVertex
100
AcDb2dVertex
 10
133.7937802184586
 20
104.7715884062929
 30
0.0
  0
VERTEX
  5
228
330
214
100
AcDbEntity
  8
Sichtbare Kanten(TC_020513_DIN)
100
AcDbVertex
100
AcDb2dVertex
 10
133.9300507415299
 20
104.7707324835939
 30
0.0
  0
VERTEX
  5
229
330
214
100
AcDbEntity
  8
Sichtbare Kanten(TC_020513_DIN)
100
AcDbVertex
100
AcDb2dVertex
 10
134.0453213561539
 20
104.770012459485
 30
0.0
  0
VERTEX
  5
22A
330
214
100
AcDbEntity
  8
Sichtbare Kanten(TC_020513_DIN)
100
AcDbVertex
100
AcDb2dVertex
 10
134.1393512595658
 20
104.7694235655946
 30
0.0
  0
VERTEX
  5
22B
330
214
100
AcDbEntity
  8
Sichtbare Kanten(TC_020513_DIN)
100
AcDbVertex
100
AcDb2dVertex
 10
134.2122691977982
 20
104.7689681861085
 30
0.0
  0
VERTEX
  5
22C
330
214
100
AcDbEntity
  8
Sichtbare Kanten(TC_020513_DIN)
100
AcDbVertex
100
AcDb2dVertex
 10
134.2641967643265
 20
104.768643936841
 30
0.0
  0
VERTEX
  5
22D
330
214
100
AcDbEntity
  8
Sichtbare Kanten(TC_020513_DIN)
100
AcDbVertex
100
AcDb2dVertex
 10
134.2952627051834
 20
104.7684508177919
 30
0.0
  0
VERTEX
  5
22E
330
214
100
AcDbEntity
  8
Sichtbare Kanten(TC_020513_DIN)
100
AcDbVertex
100
AcDb2dVertex
 10
134.3055909980301
 20
104.7683864447755
 30
0.0
  0
SEQEND
  5
217
330
214
100
AcDbEntity
  8
Sichtbare Kanten(TC_020513_DIN)
  0
LINE
  5
22F
330
37
100
AcDbEntity
  8
Sichtbare Kanten(TC_020513_DIN)
100
AcDbLine
 10
129.3612431645573
 20
104.5118417938325
 30
0.0
 11
133.8612431645573
 21
104.5118417938325
 31
0.0
  0
LINE
  5
230
330
37
100
AcDbEntity
  8
Sichtbare Kanten(TC_020513_DIN)
100
AcDbLine
 10
134.3055898210927
 20
104.7683854555967
 30
0.0
 11
133.8612431645573
 21
104.5118417938325
 31
0.0
  0
LINE
  5
231
330
37
100
AcDbEntity
  8
Sichtbare Kanten(TC_020513_DIN)
100
AcDbLine
 10
134.3055898210927
 20
104.7683854555967
 30
0.0
 11
134.3307034994085
 21
103.7407987431323
 31
0.0
  0
LINE
  5
232
330
37
100
AcDbEntity
  8
Sichtbare Kanten(TC_020513_DIN)
100
AcDbLine
 10
133.8612431645573
 20
104.0118417938325
 30
0.0
 11
134.3307034994085
 21
103.7407987431323
 31
0.0
  0
POLYLINE
  5
233
330
37
100
AcDbEntity
  8
Sichtbare Kanten(TC_020513_DIN)
100
AcDb2dPolyline
 66
     1
 10
0.0
 20
0.0
 30
0.0
 70
   128
  0
VERTEX
  5
234
330
233
100
AcDbEntity
  8
Sichtbare Kanten(TC_020513_DIN)
100
AcDbVertex
100
AcDb2dVertex
 10
134.3307036269669
 20
103.7407987925691
 30
0.0
  0
VERTEX
  5
235
330
233
100
AcDbEntity
  8
Sichtbare Kanten(TC_020513_DIN)
100
AcDbVertex
100
AcDb2dVertex
 10
134.3203109611039
 20
103.7407630297823
 30
0.0
  0
VERTEX
  5
237
330
233
100
AcDbEntity
  8
Sichtbare Kanten(TC_020513_DIN)
100
AcDbVertex
100
AcDb2dVertex
 10
134.2890471328263
 20
103.7406557414217
 30
0.0
  0
VERTEX
  5
238
330
233
100
AcDbEntity
  8
Sichtbare Kanten(TC_020513_DIN)
100
AcDbVertex
100
AcDb2dVertex
 10
134.2367977012161
 20
103.7404769274873
 30
0.0
  0
VERTEX
  5
239
330
233
100
AcDbEntity
  8
Sichtbare Kanten(TC_020513_DIN)
100
AcDbVertex
100
AcDb2dVertex
 10
134.1634339202408
 20
103.7402253958864
 30
0.0
  0
VERTEX
  5
23A
330
233
100
AcDbEntity
  8
Sichtbare Kanten(TC_020513_DIN)
100
AcDbVertex
100
AcDb2dVertex
 10
134.0688389647965
 20
103.7399011466188
 30
0.0
  0
VERTEX
  5
23B
330
233
100
AcDbEntity
  8
Sichtbare Kanten(TC_020513_DIN)
100
AcDbVertex
100
AcDb2dVertex
 10
133.9528912414078
 20
103.7395017954988
 30
0.0
  0
VERTEX
  5
23C
330
233
100
AcDbEntity
  8
Sichtbare Kanten(TC_020513_DIN)
100
AcDbVertex
100
AcDb2dVertex
 10
133.8158244002823
 20
103.7390297267122
 30
0.0
  0
VERTEX
  5
23D
330
233
100
AcDbEntity
  8
Sichtbare Kanten(TC_020513_DIN)
100
AcDbVertex
100
AcDb2dVertex
 10
133.6592525352005
 20
103.7384897086305
 30
0.0
  0
VERTEX
  5
23E
330
233
100
AcDbEntity
  8
Sichtbare Kanten(TC_020513_DIN)
100
AcDbVertex
100
AcDb2dVertex
 10
133.4851235259537
 20
103.7378877017183
 30
0.0
  0
VERTEX
  5
23F
330
233
100
AcDbEntity
  8
Sichtbare Kanten(TC_020513_DIN)
100
AcDbVertex
100
AcDb2dVertex
 10
133.2953900207047
 20
103.73722966644
 30
0.0
  0
VERTEX
  5
240
330
233
100
AcDbEntity
  8
Sichtbare Kanten(TC_020513_DIN)
100
AcDbVertex
100
AcDb2dVertex
 10
133.0919975150589
 20
103.7365227553529
 30
0.0
  0
VERTEX
  5
241
330
233
100
AcDbEntity
  8
Sichtbare Kanten(TC_020513_DIN)
100
AcDbVertex
100
AcDb2dVertex
 10
132.8768962729935
 20
103.7357729289217
 30
0.0
  0
VERTEX
  5
242
330
233
100
AcDbEntity
  8
Sichtbare Kanten(TC_020513_DIN)
100
AcDbVertex
100
AcDb2dVertex
 10
132.6468891013626
 20
103.7349694583101
 30
0.0
  0
VERTEX
  5
243
330
233
100
AcDbEntity
  8
Sichtbare Kanten(TC_020513_DIN)
100
AcDbVertex
100
AcDb2dVertex
 10
132.3990672935013
 20
103.7341004225893
 30
0.0
  0
VERTEX
  5
244
330
233
100
AcDbEntity
  8
Sichtbare Kanten(TC_020513_DIN)
100
AcDbVertex
100
AcDb2dVertex
 10
132.1351975310806
 20
103.7331717822236
 30
0.0
  0
VERTEX
  5
245
330
233
100
AcDbEntity
  8
Sichtbare Kanten(TC_020513_DIN)
100
AcDbVertex
100
AcDb2dVertex
 10
131.8570488799576
 20
103.7321894976777
 30
0.0
  0
VERTEX
  5
246
330
233
100
AcDbEntity
  8
Sichtbare Kanten(TC_020513_DIN)
100
AcDbVertex
100
AcDb2dVertex
 10
131.5663904059891
 20
103.731159529416
 30
0.0
  0
VERTEX
  5
247
330
233
100
AcDbEntity
  8
Sichtbare Kanten(TC_020513_DIN)
100
AcDbVertex
100
AcDb2dVertex
 10
131.2649864066605
 20
103.730087837903
 30
0.0
  0
VERTEX
  5
248
330
233
100
AcDbEntity
  8
Sichtbare Kanten(TC_020513_DIN)
100
AcDbVertex
100
AcDb2dVertex
 10
130.9547585357193
 20
103.728980383603
 30
0.0
  0
VERTEX
  5
249
330
233
100
AcDbEntity
  8
Sichtbare Kanten(TC_020513_DIN)
100
AcDbVertex
100
AcDb2dVertex
 10
130.6381982673172
 20
103.7278455111665
 30
0.0
  0
VERTEX
  5
24A
330
233
100
AcDbEntity
  8
Sichtbare Kanten(TC_020513_DIN)
100
AcDbVertex
100
AcDb2dVertex
 10
130.3179353583817
 20
103.7266927573366
 30
0.0
  0
VERTEX
  5
24B
330
233
100
AcDbEntity
  8
Sichtbare Kanten(TC_020513_DIN)
100
AcDbVertex
100
AcDb2dVertex
 10
129.9965995658402
 20
103.7255328509492
 30
0.0
  0
VERTEX
  5
24C
330
233
100
AcDbEntity
  8
Sichtbare Kanten(TC_020513_DIN)
100
AcDbVertex
100
AcDb2dVertex
 10
129.6768254149918
 20
103.7243729445619
 30
0.0
  0
VERTEX
  5
24D
330
233
100
AcDbEntity
  8
Sichtbare Kanten(TC_020513_DIN)
100
AcDbVertex
100
AcDb2dVertex
 10
129.361242662764
 20
103.7232237670106
 30
0.0
  0
SEQEND
  5
236
330
233
100
AcDbEntity
  8
Sichtbare Kanten(TC_020513_DIN)
  0
LINE
  5
24E
330
37
100
AcDbEntity
  8
Sichtbare Kanten(TC_020513_DIN)
100
AcDbLine
 10
129.3612431645573
 20
104.0118417938325
 30
0.0
 11
133.8612431645573
 21
104.0118417938325
 31
0.0
  0
LINE
  5
24F
330
37
100
AcDbEntity
  8
Sichtbare Kanten(TC_020513_DIN)
100
AcDbLine
 10
55.86124316455734
 20
104.0118417938325
 30
0.0
 11
55.68916507160945
 21
103.9124924605474
 31
0.0
  0
LINE
  5
250
330
37
100
AcDbEntity
  8
Sichtbare Kanten(TC_020513_DIN)
100
AcDbLine
 10
55.70600330937923
 20
104.6014695660085
 30
0.0
 11
55.86124316455734
 21
104.5118417938325
 31
0.0
  0
LINE
  5
251
330
37
100
AcDbEntity
  8
Sichtbare Kanten(TC_020513_DIN)
100
AcDbLine
 10
55.86124316455734
 20
104.5118417938325
 30
0.0
 11
55.86124316455734
 21
104.0118417938325
 31
0.0
  0
LINE
  5
252
330
37
100
AcDbEntity
  8
Sichtbare Kanten(TC_020513_DIN)
100
AcDbLine
 10
55.86124316455734
 20
104.0118417938325
 30
0.0
 11
60.36124316455733
 21
104.0118417938325
 31
0.0
  0
LINE
  5
253
330
37
100
AcDbEntity
  8
Sichtbare Kanten(TC_020513_DIN)
100
AcDbLine
 10
55.86124316455734
 20
104.5118417938325
 30
0.0
 11
60.36124316455733
 21
104.5118417938325
 31
0.0
  0
POLYLINE
  5
254
330
37
100
AcDbEntity
  8
Sichtbare Kanten(TC_020513_DIN)
100
AcDb2dPolyline
 66
     1
 10
0.0
 20
0.0
 30
0.0
 70
   128
  0
VERTEX
  5
255
330
254
100
AcDbEntity
  8
Sichtbare Kanten(TC_020513_DIN)
100
AcDbVertex
100
AcDb2dVertex
 10
60.3612440932755
 20
103.7292652938051
 30
0.0
  0
VERTEX
  5
256
330
254
100
AcDbEntity
  8
Sichtbare Kanten(TC_020513_DIN)
100
AcDbVertex
100
AcDb2dVertex
 10
60.05939901957555
 20
103.7406497809572
 30
0.0
  0
VERTEX
  5
258
330
254
100
AcDbEntity
  8
Sichtbare Kanten(TC_020513_DIN)
100
AcDbVertex
100
AcDb2dVertex
 10
59.75452126154943
 20
103.7522095057649
 30
0.0
  0
VERTEX
  5
259
330
254
100
AcDbEntity
  8
Sichtbare Kanten(TC_020513_DIN)
100
AcDbVertex
100
AcDb2dVertex
 10
59.44901884684606
 20
103.7638514849824
 30
0.0
  0
VERTEX
  5
25A
330
254
100
AcDbEntity
  8
Sichtbare Kanten(TC_020513_DIN)
100
AcDbVertex
100
AcDb2dVertex
 10
59.14530933985753
 20
103.7754839274568
 30
0.0
  0
VERTEX
  5
25B
330
254
100
AcDbEntity
  8
Sichtbare Kanten(TC_020513_DIN)
100
AcDbVertex
100
AcDb2dVertex
 10
58.84580792079015
 20
103.7870138499422
 30
0.0
  0
VERTEX
  5
25C
330
254
100
AcDbEntity
  8
Sichtbare Kanten(TC_020513_DIN)
100
AcDbVertex
100
AcDb2dVertex
 10
58.55292500147863
 20
103.7983494612855
 30
0.0
  0
VERTEX
  5
25D
330
254
100
AcDbEntity
  8
Sichtbare Kanten(TC_020513_DIN)
100
AcDbVertex
100
AcDb2dVertex
 10
58.26897324214025
 20
103.809398970334
 30
0.0
  0
VERTEX
  5
25E
330
254
100
AcDbEntity
  8
Sichtbare Kanten(TC_020513_DIN)
100
AcDbVertex
100
AcDb2dVertex
 10
57.99568833003087
 20
103.820088467328
 30
0.0
  0
VERTEX
  5
25F
330
254
100
AcDbEntity
  8
Sichtbare Kanten(TC_020513_DIN)
100
AcDbVertex
100
AcDb2dVertex
 10
57.73459614405675
 20
103.8303500029726
 30
0.0
  0
VERTEX
  5
260
330
254
100
AcDbEntity
  8
Sichtbare Kanten(TC_020513_DIN)
100
AcDbVertex
100
AcDb2dVertex
 10
57.48722971568151
 20
103.8401168200655
 30
0.0
  0
VERTEX
  5
261
330
254
100
AcDbEntity
  8
Sichtbare Kanten(TC_020513_DIN)
100
AcDbVertex
100
AcDb2dVertex
 10
57.25511730799718
 20
103.8493197772188
 30
0.0
  0
VERTEX
  5
262
330
254
100
AcDbEntity
  8
Sichtbare Kanten(TC_020513_DIN)
100
AcDbVertex
100
AcDb2dVertex
 10
57.03978479991002
 20
103.8578945014162
 30
0.0
  0
VERTEX
  5
263
330
254
100
AcDbEntity
  8
Sichtbare Kanten(TC_020513_DIN)
100
AcDbVertex
100
AcDb2dVertex
 10
56.84000910410924
 20
103.8658815238161
 30
0.0
  0
VERTEX
  5
264
330
254
100
AcDbEntity
  8
Sichtbare Kanten(TC_020513_DIN)
100
AcDbVertex
100
AcDb2dVertex
 10
56.65119351038976
 20
103.8734596583528
 30
0.0
  0
VERTEX
  5
265
330
254
100
AcDbEntity
  8
Sichtbare Kanten(TC_020513_DIN)
100
AcDbVertex
100
AcDb2dVertex
 10
56.47493065485997
 20
103.8805573794526
 30
0.0
  0
VERTEX
  5
266
330
254
100
AcDbEntity
  8
Sichtbare Kanten(TC_020513_DIN)
100
AcDbVertex
100
AcDb2dVertex
 10
56.31306351313634
 20
103.8870960089845
 30
0.0
  0
VERTEX
  5
267
330
254
100
AcDbEntity
  8
Sichtbare Kanten(TC_020513_DIN)
100
AcDbVertex
100
AcDb2dVertex
 10
56.16743506083532
 20
103.8929956767244
 30
0.0
  0
VERTEX
  5
268
330
254
100
AcDbEntity
  8
Sichtbare Kanten(TC_020513_DIN)
100
AcDbVertex
100
AcDb2dVertex
 10
56.03988588938756
 20
103.8981777045412
 30
0.0
  0
VERTEX
  5
269
330
254
100
AcDbEntity
  8
Sichtbare Kanten(TC_020513_DIN)
100
AcDbVertex
100
AcDb2dVertex
 10
55.93202532420201
 20
103.9025681826753
 30
0.0
  0
VERTEX
  5
26A
330
254
100
AcDbEntity
  8
Sichtbare Kanten(TC_020513_DIN)
100
AcDbVertex
100
AcDb2dVertex
 10
55.84415138850255
 20
103.9061516139192
 30
0.0
  0
VERTEX
  5
26B
330
254
100
AcDbEntity
  8
Sichtbare Kanten(TC_020513_DIN)
100
AcDbVertex
100
AcDb2dVertex
 10
55.77609480509801
 20
103.9089327666444
 30
0.0
  0
VERTEX
  5
26C
330
254
100
AcDbEntity
  8
Sichtbare Kanten(TC_020513_DIN)
100
AcDbVertex
100
AcDb2dVertex
 10
55.72768868098302
 20
103.9109128329439
 30
0.0
  0
VERTEX
  5
26D
330
254
100
AcDbEntity
  8
Sichtbare Kanten(TC_020513_DIN)
100
AcDbVertex
100
AcDb2dVertex
 10
55.698768507338
 20
103.912097773282
 30
0.0
  0
VERTEX
  5
26E
330
254
100
AcDbEntity
  8
Sichtbare Kanten(TC_020513_DIN)
100
AcDbVertex
100
AcDb2dVertex
 10
55.68916500697179
 20
103.9124923560304
 30
0.0
  0
SEQEND
  5
257
330
254
100
AcDbEntity
  8
Sichtbare Kanten(TC_020513_DIN)
  0
POLYLINE
  5
26F
330
37
100
AcDbEntity
  8
Sichtbare Kanten(TC_020513_DIN)
100
AcDb2dPolyline
 66
     1
 10
0.0
 20
0.0
 30
0.0
 70
   128
  0
VERTEX
  5
270
330
26F
100
AcDbEntity
  8
Sichtbare Kanten(TC_020513_DIN)
100
AcDbVertex
100
AcDb2dVertex
 10
55.70600212702794
 20
104.6014695975465
 30
0.0
  0
VERTEX
  5
271
330
26F
100
AcDbEntity
  8
Sichtbare Kanten(TC_020513_DIN)
100
AcDbVertex
100
AcDb2dVertex
 10
55.71583689341588
 20
104.6018820616884
 30
0.0
  0
VERTEX
  5
273
330
26F
100
AcDbEntity
  8
Sichtbare Kanten(TC_020513_DIN)
100
AcDbVertex
100
AcDb2dVertex
 10
55.74521483073278
 20
104.6031146857423
 30
0.0
  0
VERTEX
  5
274
330
26F
100
AcDbEntity
  8
Sichtbare Kanten(TC_020513_DIN)
100
AcDbVertex
100
AcDb2dVertex
 10
55.7939571250443
 20
104.6051579329652
 30
0.0
  0
VERTEX
  5
275
330
26F
100
AcDbEntity
  8
Sichtbare Kanten(TC_020513_DIN)
100
AcDbVertex
100
AcDb2dVertex
 10
55.86188257823033
 20
104.6080046507997
 30
0.0
  0
VERTEX
  5
276
330
26F
100
AcDbEntity
  8
Sichtbare Kanten(TC_020513_DIN)
100
AcDbVertex
100
AcDb2dVertex
 10
55.94881237635656
 20
104.6116429183168
 30
0.0
  0
VERTEX
  5
277
330
26F
100
AcDbEntity
  8
Sichtbare Kanten(TC_020513_DIN)
100
AcDbVertex
100
AcDb2dVertex
 10
56.05456532130284
 20
104.6160679671449
 30
0.0
  0
VERTEX
  5
278
330
26F
100
AcDbEntity
  8
Sichtbare Kanten(TC_020513_DIN)
100
AcDbVertex
100
AcDb2dVertex
 10
56.17870033869786
 20
104.6212583396119
 30
0.0
  0
VERTEX
  5
279
330
26F
100
AcDbEntity
  8
Sichtbare Kanten(TC_020513_DIN)
100
AcDbVertex
100
AcDb2dVertex
 10
56.32031382212682
 20
104.6271711203737
 30
0.0
  0
VERTEX
  5
27A
330
26F
100
AcDbEntity
  8
Sichtbare Kanten(TC_020513_DIN)
100
AcDbVertex
100
AcDb2dVertex
 10
56.47887171397252
 20
104.6337872359437
 30
0.0
  0
VERTEX
  5
27B
330
26F
100
AcDbEntity
  8
Sichtbare Kanten(TC_020513_DIN)
100
AcDbVertex
100
AcDb2dVertex
 10
56.65386618266149
 20
104.6410780760927
 30
0.0
  0
VERTEX
  5
27C
330
26F
100
AcDbEntity
  8
Sichtbare Kanten(TC_020513_DIN)
100
AcDbVertex
100
AcDb2dVertex
 10
56.84478224406285
 20
104.6490221831483
 30
0.0
  0
VERTEX
  5
27D
330
26F
100
AcDbEntity
  8
Sichtbare Kanten(TC_020513_DIN)
100
AcDbVertex
100
AcDb2dVertex
 10
57.05110968241735
 20
104.657593331067
 30
0.0
  0
VERTEX
  5
27E
330
26F
100
AcDbEntity
  8
Sichtbare Kanten(TC_020513_DIN)
100
AcDbVertex
100
AcDb2dVertex
 10
57.27211893687291
 20
104.6667605254335
 30
0.0
  0
VERTEX
  5
27F
330
26F
100
AcDbEntity
  8
Sichtbare Kanten(TC_020513_DIN)
100
AcDbVertex
100
AcDb2dVertex
 10
57.50618876109166
 20
104.6764546248598
 30
0.0
  0
VERTEX
  5
280
330
26F
100
AcDbEntity
  8
Sichtbare Kanten(TC_020513_DIN)
100
AcDbVertex
100
AcDb2dVertex
 10
57.75245131144567
 20
104.6866350981874
 30
0.0
  0
VERTEX
  5
281
330
26F
100
AcDbEntity
  8
Sichtbare Kanten(TC_020513_DIN)
100
AcDbVertex
100
AcDb2dVertex
 10
58.01014841685338
 20
104.6972685668153
 30
0.0
  0
VERTEX
  5
282
330
26F
100
AcDbEntity
  8
Sichtbare Kanten(TC_020513_DIN)
100
AcDbVertex
100
AcDb2dVertex
 10
58.27852190623326
 20
104.7083216521425
 30
0.0
  0
VERTEX
  5
283
330
26F
100
AcDbEntity
  8
Sichtbare Kanten(TC_020513_DIN)
100
AcDbVertex
100
AcDb2dVertex
 10
58.55682076106115
 20
104.7197633597536
 30
0.0
  0
VERTEX
  5
284
330
26F
100
AcDbEntity
  8
Sichtbare Kanten(TC_020513_DIN)
100
AcDbVertex
100
AcDb2dVertex
 10
58.84375513682408
 20
104.7315340850038
 30
0.0
  0
VERTEX
  5
285
330
26F
100
AcDbEntity
  8
Sichtbare Kanten(TC_020513_DIN)
100
AcDbVertex
100
AcDb2dVertex
 10
59.13741768488927
 20
104.7435575339479
 30
0.0
  0
VERTEX
  5
286
330
26F
100
AcDbEntity
  8
Sichtbare Kanten(TC_020513_DIN)
100
AcDbVertex
100
AcDb2dVertex
 10
59.43688810954137
 20
104.7557907912416
 30
0.0
  0
VERTEX
  5
287
330
26F
100
AcDbEntity
  8
Sichtbare Kanten(TC_020513_DIN)
100
AcDbVertex
100
AcDb2dVertex
 10
59.74127472529454
 20
104.7682028624696
 30
0.0
  0
VERTEX
  5
288
330
26F
100
AcDbEntity
  8
Sichtbare Kanten(TC_020513_DIN)
100
AcDbVertex
100
AcDb2dVertex
 10
60.04969061503453
 20
104.7807508322877
 30
0.0
  0
VERTEX
  5
289
330
26F
100
AcDbEntity
  8
Sichtbare Kanten(TC_020513_DIN)
100
AcDbVertex
100
AcDb2dVertex
 10
60.3612440932755
 20
104.7934013220949
 30
0.0
  0
SEQEND
  5
272
330
26F
100
AcDbEntity
  8
Sichtbare Kanten(TC_020513_DIN)
  0
LINE
  5
28A
330
37
100
AcDbEntity
  8
Sichtbare Kanten(TC_020513_DIN)
100
AcDbLine
 10
129.3612431645573
 20
104.0118417938325
 30
0.0
 11
60.36124316455733
 21
104.0118417938325
 31
0.0
  0
ELLIPSE
  5
28B
330
37
100
AcDbEntity
  8
Sichtbare Kanten(TC_020513_DIN)
100
AcDbEllipse
 10
60.75658172872474
 20
106.6099180051858
 30
0.0
 11
-5.001866565402878
 21
-0.0610394743223347
 31
0.0
210
0.0
220
0.0
230
1.0
 40
0.5770057848514301
 41
1.484636279849228
 42
1.549650056693689
  0
LINE
  5
28C
330
37
100
AcDbEntity
  8
Sichtbare Kanten(TC_020513_DIN)
100
AcDbLine
 10
129.3296414214883
 20
103.7231666592377
 30
0.0
 11
60.68603104545822
 21
103.7231666592377
 31
0.0
  0
ELLIPSE
  5
28D
330
37
100
AcDbEntity
  8
Sichtbare Kanten(TC_020513_DIN)
100
AcDbEllipse
 10
129.2590907382218
 20
106.6099180051858
 30
0.0
 11
-5.001866565402879
 21
0.0610394743223342
 31
0.0
210
0.0
220
0.0
230
1.0
 40
0.5770057848514301
 41
1.5919425968961
 42
1.598261382472639
  0
LINE
  5
28E
330
37
100
AcDbEntity
  8
Sichtbare Kanten(TC_020513_DIN)
100
AcDbLine
 10
133.8612431645573
 20
104.5118417938325
 30
0.0
 11
133.8612431645573
 21
104.0118417938325
 31
0.0
  0
LINE
  5
28F
330
37
100
AcDbEntity
  8
Sichtbare Kanten(TC_020513_DIN)
100
AcDbLine
 10
55.68916507160945
 20
103.9124924605474
 30
0.0
 11
55.70600330937923
 21
104.6014695660085
 31
0.0
  0
LINE
  5
290
330
37
100
AcDbEntity
  8
Sichtbare Kanten(TC_020513_DIN)
100
AcDbLine
 10
134.354454177398
 20
102.7689824760344
 30
0.0
 11
134.3795678557139
 21
101.7413957635699
 31
0.0
  0
LINE
  5
291
330
37
100
AcDbEntity
  8
Sichtbare Kanten(TC_020513_DIN)
100
AcDbLine
 10
134.4033185337033
 20
100.769579496472
 30
0.0
 11
134.4284322120191
 21
99.7419927840076
 31
0.0
  0
POLYLINE
  5
292
330
37
100
AcDbEntity
  8
Sichtbare Kanten(TC_020513_DIN)
100
AcDb2dPolyline
 66
     1
 10
0.0
 20
0.0
 30
0.0
 70
   128
  0
VERTEX
  5
293
330
292
100
AcDbEntity
  8
Sichtbare Kanten(TC_020513_DIN)
100
AcDbVertex
100
AcDb2dVertex
 10
55.65849960932775
 20
102.6577049109621
 30
0.0
  0
VERTEX
  5
294
330
292
100
AcDbEntity
  8
Sichtbare Kanten(TC_020513_DIN)
100
AcDbVertex
100
AcDb2dVertex
 10
55.66832007060094
 20
102.6579957816286
 30
0.0
  0
VERTEX
  5
296
330
292
100
AcDbEntity
  8
Sichtbare Kanten(TC_020513_DIN)
100
AcDbVertex
100
AcDb2dVertex
 10
55.69788159022374
 20
102.658869585721
 30
0.0
  0
VERTEX
  5
297
330
292
100
AcDbEntity
  8
Sichtbare Kanten(TC_020513_DIN)
100
AcDbVertex
100
AcDb2dVertex
 10
55.74734152445836
 20
102.6603310916109
 30
0.0
  0
VERTEX
  5
298
330
292
100
AcDbEntity
  8
Sichtbare Kanten(TC_020513_DIN)
100
AcDbVertex
100
AcDb2dVertex
 10
55.81685246119542
 20
102.6623850676698
 30
0.0
  0
VERTEX
  5
299
330
292
100
AcDbEntity
  8
Sichtbare Kanten(TC_020513_DIN)
100
AcDbVertex
100
AcDb2dVertex
 10
55.90656460413976
 20
102.6650362822694
 30
0.0
  0
VERTEX
  5
29A
330
292
100
AcDbEntity
  8
Sichtbare Kanten(TC_020513_DIN)
100
AcDbVertex
100
AcDb2dVertex
 10
56.01663769373937
 20
102.6682871195955
 30
0.0
  0
VERTEX
  5
29B
330
292
100
AcDbEntity
  8
Sichtbare Kanten(TC_020513_DIN)
100
AcDbVertex
100
AcDb2dVertex
 10
56.14678562769933
 20
102.6721316191835
 30
0.0
  0
VERTEX
  5
29C
330
292
100
AcDbEntity
  8
Sichtbare Kanten(TC_020513_DIN)
100
AcDbVertex
100
AcDb2dVertex
 10
56.29539192805333
 20
102.676518521039
 30
0.0
  0
VERTEX
  5
29D
330
292
100
AcDbEntity
  8
Sichtbare Kanten(TC_020513_DIN)
100
AcDbVertex
100
AcDb2dVertex
 10
56.46058262476964
 20
102.6813929888887
 30
0.0
  0
VERTEX
  5
29E
330
292
100
AcDbEntity
  8
Sichtbare Kanten(TC_020513_DIN)
100
AcDbVertex
100
AcDb2dVertex
 10
56.64048374781652
 20
102.6867001864595
 30
0.0
  0
VERTEX
  5
29F
330
292
100
AcDbEntity
  8
Sichtbare Kanten(TC_020513_DIN)
100
AcDbVertex
100
AcDb2dVertex
 10
56.83321655879064
 20
102.6923828932924
 30
0.0
  0
VERTEX
  5
2A0
330
292
100
AcDbEntity
  8
Sichtbare Kanten(TC_020513_DIN)
100
AcDbVertex
100
AcDb2dVertex
 10
57.03705252299352
 20
102.6983910414857
 30
0.0
  0
VERTEX
  5
2A1
330
292
100
AcDbEntity
  8
Sichtbare Kanten(TC_020513_DIN)
100
AcDbVertex
100
AcDb2dVertex
 10
57.25630940089269
 20
102.7048498007936
 30
0.0
  0
VERTEX
  5
2A2
330
292
100
AcDbEntity
  8
Sichtbare Kanten(TC_020513_DIN)
100
AcDbVertex
100
AcDb2dVertex
 10
57.49261082301183
 20
102.7118080470247
 30
0.0
  0
VERTEX
  5
2A3
330
292
100
AcDbEntity
  8
Sichtbare Kanten(TC_020513_DIN)
100
AcDbVertex
100
AcDb2dVertex
 10
57.74436653742833
 20
102.7192157122774
 30
0.0
  0
VERTEX
  5
2A4
330
292
100
AcDbEntity
  8
Sichtbare Kanten(TC_020513_DIN)
100
AcDbVertex
100
AcDb2dVertex
 10
58.00998152384801
 20
102.7270286891145
 30
0.0
  0
VERTEX
  5
2A5
330
292
100
AcDbEntity
  8
Sichtbare Kanten(TC_020513_DIN)
100
AcDbVertex
100
AcDb2dVertex
 10
58.28787268290563
 20
102.7351957175417
 30
0.0
  0
VERTEX
  5
2A6
330
292
100
AcDbEntity
  8
Sichtbare Kanten(TC_020513_DIN)
100
AcDbVertex
100
AcDb2dVertex
 10
58.5764426101212
 20
102.7436726901216
 30
0.0
  0
VERTEX
  5
2A7
330
292
100
AcDbEntity
  8
Sichtbare Kanten(TC_020513_DIN)
100
AcDbVertex
100
AcDb2dVertex
 10
58.87391747126622
 20
102.7524047705812
 30
0.0
  0
VERTEX
  5
2A8
330
292
100
AcDbEntity
  8
Sichtbare Kanten(TC_020513_DIN)
100
AcDbVertex
100
AcDb2dVertex
 10
59.17793930659337
 20
102.7613228175325
 30
0.0
  0
VERTEX
  5
2A9
330
292
100
AcDbEntity
  8
Sichtbare Kanten(TC_020513_DIN)
100
AcDbVertex
100
AcDb2dVertex
 10
59.48603809962316
 20
102.7703553054017
 30
0.0
  0
VERTEX
  5
2AA
330
292
100
AcDbEntity
  8
Sichtbare Kanten(TC_020513_DIN)
100
AcDbVertex
100
AcDb2dVertex
 10
59.79574383387609
 20
102.7794283244295
 30
0.0
  0
VERTEX
  5
2AB
330
292
100
AcDbEntity
  8
Sichtbare Kanten(TC_020513_DIN)
100
AcDbVertex
100
AcDb2dVertex
 10
60.10459126124425
 20
102.7884703490419
 30
0.0
  0
VERTEX
  5
2AC
330
292
100
AcDbEntity
  8
Sichtbare Kanten(TC_020513_DIN)
100
AcDbVertex
100
AcDb2dVertex
 10
60.41010798106237
 20
102.7974098536653
 30
0.0
  0
SEQEND
  5
295
330
292
100
AcDbEntity
  8
Sichtbare Kanten(TC_020513_DIN)
  0
ELLIPSE
  5
2AD
330
37
100
AcDbEntity
  8
Sichtbare Kanten(TC_020513_DIN)
100
AcDbEllipse
 10
60.59294587933234
 20
99.91436260291685
 30
0.0
 11
5.001866565402878
 21
0.0610394743223344
 31
0.0
210
0.0
220
0.0
230
1.0
 40
0.57700578485143
 41
1.549650056693691
 42
1.600316310142088
  0
LINE
  5
2AE
330
37
100
AcDbEntity
  8
Sichtbare Kanten(TC_020513_DIN)
100
AcDbLine
 10
60.66349656259884
 20
102.8011139488649
 30
0.0
 11
129.3521759043477
 21
102.8011139488649
 31
0.0
  0
ELLIPSE
  5
2AF
330
37
100
AcDbEntity
  8
Sichtbare Kanten(TC_020513_DIN)
100
AcDbEllipse
 10
129.4227265876142
 20
99.91436260291685
 30
0.0
 11
5.001866565402878
 21
-0.0610394743223359
 31
0.0
210
0.0
220
0.0
230
1.0
 40
0.5770057848514301
 41
1.580360419400674
 42
1.591942596896103
  0
POLYLINE
  5
2B0
330
37
100
AcDbEntity
  8
Sichtbare Kanten(TC_020513_DIN)
100
AcDb2dPolyline
 66
     1
 10
0.0
 20
0.0
 30
0.0
 70
   128
  0
VERTEX
  5
2B1
330
2B0
100
AcDbEntity
  8
Sichtbare Kanten(TC_020513_DIN)
100
AcDbVertex
100
AcDb2dVertex
 10
129.4101065505509
 20
102.8009205672426
 30
0.0
  0
VERTEX
  5
2B2
330
2B0
100
AcDbEntity
  8
Sichtbare Kanten(TC_020513_DIN)
100
AcDbVertex
100
AcDb2dVertex
 10
129.7245520461563
 20
102.7988236758394
 30
0.0
  0
VERTEX
  5
2B4
330
2B0
100
AcDbEntity
  8
Sichtbare Kanten(TC_020513_DIN)
100
AcDbVertex
100
AcDb2dVertex
 10
130.0430840362076
 20
102.7967089030427
 30
0.0
  0
VERTEX
  5
2B5
330
2B0
100
AcDbEntity
  8
Sichtbare Kanten(TC_020513_DIN)
100
AcDbVertex
100
AcDb2dVertex
 10
130.3630918372635
 20
102.7945929381532
 30
0.0
  0
VERTEX
  5
2B6
330
2B0
100
AcDbEntity
  8
Sichtbare Kanten(TC_020513_DIN)
100
AcDbVertex
100
AcDb2dVertex
 10
130.6819599975113
 20
102.7924936625642
 30
0.0
  0
VERTEX
  5
2B7
330
2B0
100
AcDbEntity
  8
Sichtbare Kanten(TC_020513_DIN)
100
AcDbVertex
100
AcDb2dVertex
 10
130.9970802176956
 20
102.7904277655763
 30
0.0
  0
VERTEX
  5
2B8
330
2B0
100
AcDbEntity
  8
Sichtbare Kanten(TC_020513_DIN)
100
AcDbVertex
100
AcDb2dVertex
 10
131.3058370460038
 20
102.78841193649
 30
0.0
  0
VERTEX
  5
2B9
330
2B0
100
AcDbEntity
  8
Sichtbare Kanten(TC_020513_DIN)
100
AcDbVertex
100
AcDb2dVertex
 10
131.6057580817703
 20
102.7864640566988
 30
0.0
  0
VERTEX
  5
2BA
330
2B0
100
AcDbEntity
  8
Sichtbare Kanten(TC_020513_DIN)
100
AcDbVertex
100
AcDb2dVertex
 10
131.8949407447342
 20
102.7845924708528
 30
0.0
  0
VERTEX
  5
2BB
330
2B0
100
AcDbEntity
  8
Sichtbare Kanten(TC_020513_DIN)
100
AcDbVertex
100
AcDb2dVertex
 10
132.1716398108963
 20
102.7828090998811
 30
0.0
  0
VERTEX
  5
2BC
330
2B0
100
AcDbEntity
  8
Sichtbare Kanten(TC_020513_DIN)
100
AcDbVertex
100
AcDb2dVertex
 10
132.4341052878861
 20
102.7811234805269
 30
0.0
  0
VERTEX
  5
2BD
330
2B0
100
AcDbEntity
  8
Sichtbare Kanten(TC_020513_DIN)
100
AcDbVertex
100
AcDb2dVertex
 10
132.6805943358902
 20
102.7795463416261
 30
0.0
  0
VERTEX
  5
2BE
330
2B0
100
AcDbEntity
  8
Sichtbare Kanten(TC_020513_DIN)
100
AcDbVertex
100
AcDb2dVertex
 10
132.9093545783524
 20
102.778087219922
 30
0.0
  0
VERTEX
  5
2BF
330
2B0
100
AcDbEntity
  8
Sichtbare Kanten(TC_020513_DIN)
100
AcDbVertex
100
AcDb2dVertex
 10
133.1231397498612
 20
102.7767282340211
 30
0.0
  0
VERTEX
  5
2C0
330
2B0
100
AcDbEntity
  8
Sichtbare Kanten(TC_020513_DIN)
100
AcDbVertex
100
AcDb2dVertex
 10
133.325299631453
 20
102.7754479262514
 30
0.0
  0
VERTEX
  5
2C1
330
2B0
100
AcDbEntity
  8
Sichtbare Kanten(TC_020513_DIN)
100
AcDbVertex
100
AcDb2dVertex
 10
133.5138958800797
 20
102.7742558333559
 30
0.0
  0
VERTEX
  5
2C2
330
2B0
100
AcDbEntity
  8
Sichtbare Kanten(TC_020513_DIN)
100
AcDbVertex
100
AcDb2dVertex
 10
133.686992536879
 20
102.7731650683565
 30
0.0
  0
VERTEX
  5
2C3
330
2B0
100
AcDbEntity
  8
Sichtbare Kanten(TC_020513_DIN)
100
AcDbVertex
100
AcDb2dVertex
 10
133.8426464904312
 20
102.7721851679963
 30
0.0
  0
VERTEX
  5
2C4
330
2B0
100
AcDbEntity
  8
Sichtbare Kanten(TC_020513_DIN)
100
AcDbVertex
100
AcDb2dVertex
 10
133.9789146293167
 20
102.7713304373903
 30
0.0
  0
VERTEX
  5
2C5
330
2B0
100
AcDbEntity
  8
Sichtbare Kanten(TC_020513_DIN)
100
AcDbVertex
100
AcDb2dVertex
 10
134.0941852439408
 20
102.7706080290956
 30
0.0
  0
VERTEX
  5
2C6
330
2B0
100
AcDbEntity
  8
Sichtbare Kanten(TC_020513_DIN)
100
AcDbVertex
100
AcDb2dVertex
 10
134.1882151473526
 20
102.7700203272981
 30
0.0
  0
VERTEX
  5
2C7
330
2B0
100
AcDbEntity
  8
Sichtbare Kanten(TC_020513_DIN)
100
AcDbVertex
100
AcDb2dVertex
 10
134.261133085585
 20
102.769564947812
 30
0.0
  0
VERTEX
  5
2C8
330
2B0
100
AcDbEntity
  8
Sichtbare Kanten(TC_020513_DIN)
100
AcDbVertex
100
AcDb2dVertex
 10
134.3130606521134
 20
102.7692406985444
 30
0.0
  0
VERTEX
  5
2C9
330
2B0
100
AcDbEntity
  8
Sichtbare Kanten(TC_020513_DIN)
100
AcDbVertex
100
AcDb2dVertex
 10
134.3441265929703
 20
102.7690463874025
 30
0.0
  0
VERTEX
  5
2CA
330
2B0
100
AcDbEntity
  8
Sichtbare Kanten(TC_020513_DIN)
100
AcDbVertex
100
AcDb2dVertex
 10
134.354454885817
 20
102.7689820143861
 30
0.0
  0
SEQEND
  5
2B3
330
2B0
100
AcDbEntity
  8
Sichtbare Kanten(TC_020513_DIN)
  0
LINE
  5
2CB
330
37
100
AcDbEntity
  8
Sichtbare Kanten(TC_020513_DIN)
100
AcDbLine
 10
129.4101075208626
 20
102.5124388142701
 30
0.0
 11
60.41010752086265
 21
102.5124388142701
 31
0.0
  0
LINE
  5
2CC
330
37
100
AcDbEntity
  8
Sichtbare Kanten(TC_020513_DIN)
100
AcDbLine
 10
129.4101075208626
 20
102.5124388142701
 30
0.0
 11
133.9101075208626
 21
102.5124388142701
 31
0.0
  0
LINE
  5
2CD
330
37
100
AcDbEntity
  8
Sichtbare Kanten(TC_020513_DIN)
100
AcDbLine
 10
134.354454177398
 20
102.7689824760344
 30
0.0
 11
133.9101075208626
 21
102.5124388142701
 31
0.0
  0
LINE
  5
2CE
330
37
100
AcDbEntity
  8
Sichtbare Kanten(TC_020513_DIN)
100
AcDbLine
 10
133.9101075208626
 20
102.0124388142702
 30
0.0
 11
134.3795678557139
 21
101.7413957635699
 31
0.0
  0
POLYLINE
  5
2CF
330
37
100
AcDbEntity
  8
Sichtbare Kanten(TC_020513_DIN)
100
AcDb2dPolyline
 66
     1
 10
0.0
 20
0.0
 30
0.0
 70
   128
  0
VERTEX
  5
2D0
330
2CF
100
AcDbEntity
  8
Sichtbare Kanten(TC_020513_DIN)
100
AcDbVertex
100
AcDb2dVertex
 10
134.3795675147537
 20
101.7413955542726
 30
0.0
  0
VERTEX
  5
2D1
330
2CF
100
AcDbEntity
  8
Sichtbare Kanten(TC_020513_DIN)
100
AcDbVertex
100
AcDb2dVertex
 10
134.3691748488907
 20
101.7413597914857
 30
0.0
  0
VERTEX
  5
2D3
330
2CF
100
AcDbEntity
  8
Sichtbare Kanten(TC_020513_DIN)
100
AcDbVertex
100
AcDb2dVertex
 10
134.3379134047989
 20
101.741253695218
 30
0.0
  0
VERTEX
  5
2D4
330
2CF
100
AcDbEntity
  8
Sichtbare Kanten(TC_020513_DIN)
100
AcDbVertex
100
AcDb2dVertex
 10
134.285661589003
 20
101.7410748812837
 30
0.0
  0
VERTEX
  5
2D5
330
2CF
100
AcDbEntity
  8
Sichtbare Kanten(TC_020513_DIN)
100
AcDbVertex
100
AcDb2dVertex
 10
134.2122978080277
 20
101.7408221575899
 30
0.0
  0
VERTEX
  5
2D6
330
2CF
100
AcDbEntity
  8
Sichtbare Kanten(TC_020513_DIN)
100
AcDbVertex
100
AcDb2dVertex
 10
134.1177052367691
 20
101.7404979083223
 30
0.0
  0
VERTEX
  5
2D7
330
2CF
100
AcDbEntity
  8
Sichtbare Kanten(TC_020513_DIN)
100
AcDbVertex
100
AcDb2dVertex
 10
134.0017551291947
 20
101.7400985572023
 30
0.0
  0
VERTEX
  5
2D8
330
2CF
100
AcDbEntity
  8
Sichtbare Kanten(TC_020513_DIN)
100
AcDbVertex
100
AcDb2dVertex
 10
133.8646882880692
 20
101.7396264884157
 30
0.0
  0
VERTEX
  5
2D9
330
2CF
100
AcDbEntity
  8
Sichtbare Kanten(TC_020513_DIN)
100
AcDbVertex
100
AcDb2dVertex
 10
133.7081164229874
 20
101.739086470334
 30
0.0
  0
VERTEX
  5
2DA
330
2CF
100
AcDbEntity
  8
Sichtbare Kanten(TC_020513_DIN)
100
AcDbVertex
100
AcDb2dVertex
 10
133.5339874137406
 20
101.7384844634218
 30
0.0
  0
VERTEX
  5
2DB
330
2CF
100
AcDbEntity
  8
Sichtbare Kanten(TC_020513_DIN)
100
AcDbVertex
100
AcDb2dVertex
 10
133.3442539084915
 20
101.7378264281435
 30
0.0
  0
VERTEX
  5
2DC
330
2CF
100
AcDbEntity
  8
Sichtbare Kanten(TC_020513_DIN)
100
AcDbVertex
100
AcDb2dVertex
 10
133.1408614028458
 20
101.7371195170564
 30
0.0
  0
VERTEX
  5
2DD
330
2CF
100
AcDbEntity
  8
Sichtbare Kanten(TC_020513_DIN)
100
AcDbVertex
100
AcDb2dVertex
 10
132.9257601607804
 20
101.7363696906251
 30
0.0
  0
VERTEX
  5
2DE
330
2CF
100
AcDbEntity
  8
Sichtbare Kanten(TC_020513_DIN)
100
AcDbVertex
100
AcDb2dVertex
 10
132.6957553733353
 20
101.7355662200136
 30
0.0
  0
VERTEX
  5
2DF
330
2CF
100
AcDbEntity
  8
Sichtbare Kanten(TC_020513_DIN)
100
AcDbVertex
100
AcDb2dVertex
 10
132.4479311812882
 20
101.7346971842927
 30
0.0
  0
VERTEX
  5
2E0
330
2CF
100
AcDbEntity
  8
Sichtbare Kanten(TC_020513_DIN)
100
AcDbVertex
100
AcDb2dVertex
 10
132.1840614188675
 20
101.7337685439271
 30
0.0
  0
VERTEX
  5
2E1
330
2CF
100
AcDbEntity
  8
Sichtbare Kanten(TC_020513_DIN)
100
AcDbVertex
100
AcDb2dVertex
 10
131.9059127677445
 20
101.7327862593812
 30
0.0
  0
VERTEX
  5
2E2
330
2CF
100
AcDbEntity
  8
Sichtbare Kanten(TC_020513_DIN)
100
AcDbVertex
100
AcDb2dVertex
 10
131.615254293776
 20
101.7317574832124
 30
0.0
  0
VERTEX
  5
2E3
330
2CF
100
AcDbEntity
  8
Sichtbare Kanten(TC_020513_DIN)
100
AcDbVertex
100
AcDb2dVertex
 10
131.3138502944473
 20
101.7306857916994
 30
0.0
  0
VERTEX
  5
2E4
330
2CF
100
AcDbEntity
  8
Sichtbare Kanten(TC_020513_DIN)
100
AcDbVertex
100
AcDb2dVertex
 10
131.003624807692
 20
101.7295771453065
 30
0.0
  0
VERTEX
  5
2E5
330
2CF
100
AcDbEntity
  8
Sichtbare Kanten(TC_020513_DIN)
100
AcDbVertex
100
AcDb2dVertex
 10
130.6870621551041
 20
101.72844227287
 30
0.0
  0
VERTEX
  5
2E6
330
2CF
100
AcDbEntity
  8
Sichtbare Kanten(TC_020513_DIN)
100
AcDbVertex
100
AcDb2dVertex
 10
130.3667992461685
 20
101.727290711133
 30
0.0
  0
VERTEX
  5
2E7
330
2CF
100
AcDbEntity
  8
Sichtbare Kanten(TC_020513_DIN)
100
AcDbVertex
100
AcDb2dVertex
 10
130.045463453627
 20
101.7261296126527
 30
0.0
  0
VERTEX
  5
2E8
330
2CF
100
AcDbEntity
  8
Sichtbare Kanten(TC_020513_DIN)
100
AcDbVertex
100
AcDb2dVertex
 10
129.7256893027787
 20
101.7249697062654
 30
0.0
  0
VERTEX
  5
2E9
330
2CF
100
AcDbEntity
  8
Sichtbare Kanten(TC_020513_DIN)
100
AcDbVertex
100
AcDb2dVertex
 10
129.4101065505509
 20
101.723821720807
 30
0.0
  0
SEQEND
  5
2D2
330
2CF
100
AcDbEntity
  8
Sichtbare Kanten(TC_020513_DIN)
  0
LINE
  5
2EA
330
37
100
AcDbEntity
  8
Sichtbare Kanten(TC_020513_DIN)
100
AcDbLine
 10
129.4101075208626
 20
102.0124388142702
 30
0.0
 11
133.9101075208626
 21
102.0124388142702
 31
0.0
  0
LINE
  5
2EB
330
37
100
AcDbEntity
  8
Sichtbare Kanten(TC_020513_DIN)
100
AcDbLine
 10
55.91010752086265
 20
102.0124388142702
 30
0.0
 11
55.63890201394698
 21
101.8558582418467
 31
0.0
  0
LINE
  5
2EC
330
37
100
AcDbEntity
  8
Sichtbare Kanten(TC_020513_DIN)
100
AcDbLine
 10
55.65849873189877
 20
102.6577052163089
 30
0.0
 11
55.91010752086265
 21
102.5124388142701
 31
0.0
  0
LINE
  5
2ED
330
37
100
AcDbEntity
  8
Sichtbare Kanten(TC_020513_DIN)
100
AcDbLine
 10
55.91010752086265
 20
102.5124388142701
 30
0.0
 11
55.91010752086265
 21
102.0124388142702
 31
0.0
  0
LINE
  5
2EE
330
37
100
AcDbEntity
  8
Sichtbare Kanten(TC_020513_DIN)
100
AcDbLine
 10
55.91010752086265
 20
102.0124388142702
 30
0.0
 11
60.41010752086265
 21
102.0124388142702
 31
0.0
  0
LINE
  5
2EF
330
37
100
AcDbEntity
  8
Sichtbare Kanten(TC_020513_DIN)
100
AcDbLine
 10
55.91010752086265
 20
102.5124388142701
 30
0.0
 11
60.41010752086265
 21
102.5124388142701
 31
0.0
  0
POLYLINE
  5
2F0
330
37
100
AcDbEntity
  8
Sichtbare Kanten(TC_020513_DIN)
100
AcDb2dPolyline
 66
     1
 10
0.0
 20
0.0
 30
0.0
 70
   128
  0
VERTEX
  5
2F1
330
2F0
100
AcDbEntity
  8
Sichtbare Kanten(TC_020513_DIN)
100
AcDbVertex
100
AcDb2dVertex
 10
60.41010798106237
 20
101.726742348401
 30
0.0
  0
VERTEX
  5
2F2
330
2F0
100
AcDbEntity
  8
Sichtbare Kanten(TC_020513_DIN)
100
AcDbVertex
100
AcDb2dVertex
 10
60.09296358714147
 20
101.7350846144838
 30
0.0
  0
VERTEX
  5
2F4
330
2F0
100
AcDbEntity
  8
Sichtbare Kanten(TC_020513_DIN)
100
AcDbVertex
100
AcDb2dVertex
 10
59.77863968501134
 20
101.7433863494081
 30
0.0
  0
VERTEX
  5
2F5
330
2F0
100
AcDbEntity
  8
Sichtbare Kanten(TC_020513_DIN)
100
AcDbVertex
100
AcDb2dVertex
 10
59.46807325968785
 20
101.7516189429445
 30
0.0
  0
VERTEX
  5
2F6
330
2F0
100
AcDbEntity
  8
Sichtbare Kanten(TC_020513_DIN)
100
AcDbVertex
100
AcDb2dVertex
 10
59.16220129618688
 20
101.759758553235
 30
0.0
  0
VERTEX
  5
2F7
330
2F0
100
AcDbEntity
  8
Sichtbare Kanten(TC_020513_DIN)
100
AcDbVertex
100
AcDb2dVertex
 10
58.86196554789586
 20
101.7677777621431
 30
0.0
  0
VERTEX
  5
2F8
330
2F0
100
AcDbEntity
  8
Sichtbare Kanten(TC_020513_DIN)
100
AcDbVertex
100
AcDb2dVertex
 10
58.56830299983068
 20
101.7756515357179
 30
0.0
  0
VERTEX
  5
2F9
330
2F0
100
AcDbEntity
  8
Sichtbare Kanten(TC_020513_DIN)
100
AcDbVertex
100
AcDb2dVertex
 10
58.28302086482091
 20
101.783328613965
 30
0.0
  0
VERTEX
  5
2FA
330
2F0
100
AcDbEntity
  8
Sichtbare Kanten(TC_020513_DIN)
100
AcDbVertex
100
AcDb2dVertex
 10
58.00783337245031
 20
101.7907613131685
 30
0.0
  0
VERTEX
  5
2FB
330
2F0
100
AcDbEntity
  8
Sichtbare Kanten(TC_020513_DIN)
100
AcDbVertex
100
AcDb2dVertex
 10
57.7435273040299
 20
101.7979245993776
 30
0.0
  0
VERTEX
  5
2FC
330
2F0
100
AcDbEntity
  8
Sichtbare Kanten(TC_020513_DIN)
100
AcDbVertex
100
AcDb2dVertex
 10
57.49088228831334
 20
101.8047934386415
 30
0.0
  0
VERTEX
  5
2FD
330
2F0
100
AcDbEntity
  8
Sichtbare Kanten(TC_020513_DIN)
100
AcDbVertex
100
AcDb2dVertex
 10
57.25068749079747
 20
101.8113463732881
 30
0.0
  0
VERTEX
  5
2FE
330
2F0
100
AcDbEntity
  8
Sichtbare Kanten(TC_020513_DIN)
100
AcDbVertex
100
AcDb2dVertex
 10
57.02372492442174
 20
101.8175559851808
 30
0.0
  0
VERTEX
  5
2FF
330
2F0
100
AcDbEntity
  8
Sichtbare Kanten(TC_020513_DIN)
100
AcDbVertex
100
AcDb2dVertex
 10
56.81129635462804
 20
101.8233853194398
 30
0.0
  0
VERTEX
  5
300
330
2F0
100
AcDbEntity
  8
Sichtbare Kanten(TC_020513_DIN)
100
AcDbVertex
100
AcDb2dVertex
 10
56.61477984080358
 20
101.8287926528139
 30
0.0
  0
VERTEX
  5
301
330
2F0
100
AcDbEntity
  8
Sichtbare Kanten(TC_020513_DIN)
100
AcDbVertex
100
AcDb2dVertex
 10
56.43469513545079
 20
101.8337601039094
 30
0.0
  0
VERTEX
  5
302
330
2F0
100
AcDbEntity
  8
Sichtbare Kanten(TC_020513_DIN)
100
AcDbVertex
100
AcDb2dVertex
 10
56.27155483851476
 20
101.8382709834261
 30
0.0
  0
VERTEX
  5
303
330
2F0
100
AcDbEntity
  8
Sichtbare Kanten(TC_020513_DIN)
100
AcDbVertex
100
AcDb2dVertex
 10
56.12587631831212
 20
101.8423074099702
 30
0.0
  0
VERTEX
  5
304
330
2F0
100
AcDbEntity
  8
Sichtbare Kanten(TC_020513_DIN)
100
AcDbVertex
100
AcDb2dVertex
 10
55.99817217478795
 20
101.8458526942415
 30
0.0
  0
VERTEX
  5
305
330
2F0
100
AcDbEntity
  8
Sichtbare Kanten(TC_020513_DIN)
100
AcDbVertex
100
AcDb2dVertex
 10
55.88914335856481
 20
101.8488841864747
 30
0.0
  0
VERTEX
  5
306
330
2F0
100
AcDbEntity
  8
Sichtbare Kanten(TC_020513_DIN)
100
AcDbVertex
100
AcDb2dVertex
 10
55.79952658305211
 20
101.8513780448122
 30
0.0
  0
VERTEX
  5
307
330
2F0
100
AcDbEntity
  8
Sichtbare Kanten(TC_020513_DIN)
100
AcDbVertex
100
AcDb2dVertex
 10
55.72951735148473
 20
101.8533283087892
 30
0.0
  0
VERTEX
  5
308
330
2F0
100
AcDbEntity
  8
Sichtbare Kanten(TC_020513_DIN)
100
AcDbVertex
100
AcDb2dVertex
 10
55.67929447779699
 20
101.8547302100343
 30
0.0
  0
VERTEX
  5
309
330
2F0
100
AcDbEntity
  8
Sichtbare Kanten(TC_020513_DIN)
100
AcDbVertex
100
AcDb2dVertex
 10
55.64902962336583
 20
101.8555754038972
 30
0.0
  0
VERTEX
  5
30A
330
2F0
100
AcDbEntity
  8
Sichtbare Kanten(TC_020513_DIN)
100
AcDbVertex
100
AcDb2dVertex
 10
55.6389016021256
 20
101.8558579299135
 30
0.0
  0
SEQEND
  5
2F3
330
2F0
100
AcDbEntity
  8
Sichtbare Kanten(TC_020513_DIN)
  0
LINE
  5
30B
330
37
100
AcDbEntity
  8
Sichtbare Kanten(TC_020513_DIN)
100
AcDbLine
 10
129.4101075208626
 20
102.0124388142702
 30
0.0
 11
60.41010752086265
 21
102.0124388142702
 31
0.0
  0
ELLIPSE
  5
30C
330
37
100
AcDbEntity
  8
Sichtbare Kanten(TC_020513_DIN)
100
AcDbEllipse
 10
60.70771737241942
 20
104.6105150256235
 30
0.0
 11
-5.001866565402878
 21
-0.0610394743223347
 31
0.0
210
0.0
220
0.0
230
1.0
 40
0.5770057848514301
 41
1.504221602081457
 42
1.549650056693689
  0
LINE
  5
30D
330
37
100
AcDbEntity
  8
Sichtbare Kanten(TC_020513_DIN)
100
AcDbLine
 10
129.3785057777936
 20
101.7237636796753
 30
0.0
 11
60.63716668915292
 21
101.7237636796753
 31
0.0
  0
ELLIPSE
  5
30E
330
37
100
AcDbEntity
  8
Sichtbare Kanten(TC_020513_DIN)
100
AcDbEllipse
 10
129.3079550945271
 20
104.6105150256235
 30
0.0
 11
-5.001866565402879
 21
0.0610394743223342
 31
0.0
210
0.0
220
0.0
230
1.0
 40
0.5770057848514301
 41
1.5919425968961
 42
1.598261382472639
  0
LINE
  5
30F
330
37
100
AcDbEntity
  8
Sichtbare Kanten(TC_020513_DIN)
100
AcDbLine
 10
133.9101075208626
 20
102.5124388142701
 30
0.0
 11
133.9101075208626
 21
102.0124388142702
 31
0.0
  0
LINE
  5
310
330
37
100
AcDbEntity
  8
Sichtbare Kanten(TC_020513_DIN)
100
AcDbLine
 10
55.63890201394698
 20
101.8558582418467
 30
0.0
 11
55.65849873189877
 21
102.6577052163089
 31
0.0
  0
POLYLINE
  5
311
330
37
100
AcDbEntity
  8
Sichtbare Kanten(TC_020513_DIN)
100
AcDb2dPolyline
 66
     1
 10
0.0
 20
0.0
 30
0.0
 70
   128
  0
VERTEX
  5
312
330
311
100
AcDbEntity
  8
Sichtbare Kanten(TC_020513_DIN)
100
AcDbVertex
100
AcDb2dVertex
 10
55.61099470744176
 20
100.7139414164705
 30
0.0
  0
VERTEX
  5
313
330
311
100
AcDbEntity
  8
Sichtbare Kanten(TC_020513_DIN)
100
AcDbVertex
100
AcDb2dVertex
 10
55.62106550822301
 20
100.7141190383119
 30
0.0
  0
VERTEX
  5
315
330
311
100
AcDbEntity
  8
Sichtbare Kanten(TC_020513_DIN)
100
AcDbVertex
100
AcDb2dVertex
 10
55.6513732779984
 20
100.714654288022
 30
0.0
  0
VERTEX
  5
316
330
311
100
AcDbEntity
  8
Sichtbare Kanten(TC_020513_DIN)
100
AcDbVertex
100
AcDb2dVertex
 10
55.7020586837296
 20
100.7155495497865
 30
0.0
  0
VERTEX
  5
317
330
311
100
AcDbEntity
  8
Sichtbare Kanten(TC_020513_DIN)
100
AcDbVertex
100
AcDb2dVertex
 10
55.7732576240067
 20
100.7168083998842
 30
0.0
  0
VERTEX
  5
318
330
311
100
AcDbEntity
  8
Sichtbare Kanten(TC_020513_DIN)
100
AcDbVertex
100
AcDb2dVertex
 10
55.86511553416295
 20
100.7184332225008
 30
0.0
  0
VERTEX
  5
319
330
311
100
AcDbEntity
  8
Sichtbare Kanten(TC_020513_DIN)
100
AcDbVertex
100
AcDb2dVertex
 10
55.97776831278844
 20
100.7204252097291
 30
0.0
  0
VERTEX
  5
31A
330
311
100
AcDbEntity
  8
Sichtbare Kanten(TC_020513_DIN)
100
AcDbVertex
100
AcDb2dVertex
 10
56.11095846781774
 20
100.7227831694765
 30
0.0
  0
VERTEX
  5
31B
330
311
100
AcDbEntity
  8
Sichtbare Kanten(TC_020513_DIN)
100
AcDbVertex
100
AcDb2dVertex
 10
56.26307190547032
 20
100.7254761073274
 30
0.0
  0
VERTEX
  5
31C
330
311
100
AcDbEntity
  8
Sichtbare Kanten(TC_020513_DIN)
100
AcDbVertex
100
AcDb2dVertex
 10
56.43219650874181
 20
100.7284718367738
 30
0.0
  0
VERTEX
  5
31D
330
311
100
AcDbEntity
  8
Sichtbare Kanten(TC_020513_DIN)
100
AcDbVertex
100
AcDb2dVertex
 10
56.61642731318517
 20
100.7317381713075
 30
0.0
  0
VERTEX
  5
31E
330
311
100
AcDbEntity
  8
Sichtbare Kanten(TC_020513_DIN)
100
AcDbVertex
100
AcDb2dVertex
 10
56.81385697016759
 20
100.7352393481416
 30
0.0
  0
VERTEX
  5
31F
330
311
100
AcDbEntity
  8
Sichtbare Kanten(TC_020513_DIN)
100
AcDbVertex
100
AcDb2dVertex
 10
57.02263058314366
 20
100.7389443728609
 30
0.0
  0
VERTEX
  5
320
330
311
100
AcDbEntity
  8
Sichtbare Kanten(TC_020513_DIN)
100
AcDbVertex
100
AcDb2dVertex
 10
57.24662483820958
 20
100.7429235789461
 30
0.0
  0
VERTEX
  5
321
330
311
100
AcDbEntity
  8
Sichtbare Kanten(TC_020513_DIN)
100
AcDbVertex
100
AcDb2dVertex
 10
57.48800457606359
 20
100.7472151133699
 30
0.0
  0
VERTEX
  5
322
330
311
100
AcDbEntity
  8
Sichtbare Kanten(TC_020513_DIN)
100
AcDbVertex
100
AcDb2dVertex
 10
57.74510563502355
 20
100.75178917381
 30
0.0
  0
VERTEX
  5
323
330
311
100
AcDbEntity
  8
Sichtbare Kanten(TC_020513_DIN)
100
AcDbVertex
100
AcDb2dVertex
 10
58.01625908503575
 20
100.7566171500368
 30
0.0
  0
VERTEX
  5
324
330
311
100
AcDbEntity
  8
Sichtbare Kanten(TC_020513_DIN)
100
AcDbVertex
100
AcDb2dVertex
 10
58.2997959960465
 20
100.7616716239137
 30
0.0
  0
VERTEX
  5
325
330
311
100
AcDbEntity
  8
Sichtbare Kanten(TC_020513_DIN)
100
AcDbVertex
100
AcDb2dVertex
 10
58.59404982218785
 20
100.7669216010255
 30
0.0
  0
VERTEX
  5
326
330
311
100
AcDbEntity
  8
Sichtbare Kanten(TC_020513_DIN)
100
AcDbVertex
100
AcDb2dVertex
 10
58.89718235621495
 20
100.772334894864
 30
0.0
  0
VERTEX
  5
327
330
311
100
AcDbEntity
  8
Sichtbare Kanten(TC_020513_DIN)
100
AcDbVertex
100
AcDb2dVertex
 10
59.2067784179215
 20
100.7778697821779
 30
0.0
  0
VERTEX
  5
328
330
311
100
AcDbEntity
  8
Sichtbare Kanten(TC_020513_DIN)
100
AcDbVertex
100
AcDb2dVertex
 10
59.52029408106847
 20
100.783480963437
 30
0.0
  0
VERTEX
  5
329
330
311
100
AcDbEntity
  8
Sichtbare Kanten(TC_020513_DIN)
100
AcDbVertex
100
AcDb2dVertex
 10
59.83519257197423
 20
100.7891219470186
 30
0.0
  0
VERTEX
  5
32A
330
311
100
AcDbEntity
  8
Sichtbare Kanten(TC_020513_DIN)
100
AcDbVertex
100
AcDb2dVertex
 10
60.14893234858556
 20
100.7947474333925
 30
0.0
  0
VERTEX
  5
32B
330
311
100
AcDbEntity
  8
Sichtbare Kanten(TC_020513_DIN)
100
AcDbVertex
100
AcDb2dVertex
 10
60.45897186884923
 20
100.8003133151216
 30
0.0
  0
SEQEND
  5
314
330
311
100
AcDbEntity
  8
Sichtbare Kanten(TC_020513_DIN)
  0
ELLIPSE
  5
32C
330
37
100
AcDbEntity
  8
Sichtbare Kanten(TC_020513_DIN)
100
AcDbEllipse
 10
60.54408152302702
 20
97.91495962335449
 30
0.0
 11
5.001866565402878
 21
0.0610394743223344
 31
0.0
210
0.0
220
0.0
230
1.0
 40
0.57700578485143
 41
1.549650056693691
 42
1.58077102220853
  0
ELLIPSE
  5
32D
330
37
100
AcDbEntity
  8
Sichtbare Kanten(TC_020513_DIN)
100
AcDbEllipse
 10
129.4715909439195
 20
97.91495962335448
 30
0.0
 11
5.001866565402878
 21
-0.0610394743223359
 31
0.0
210
0.0
220
0.0
230
1.0
 40
0.5770057848514301
 41
1.580360419400674
 42
1.591942596896103
  0
POLYLINE
  5
32E
330
37
100
AcDbEntity
  8
Sichtbare Kanten(TC_020513_DIN)
100
AcDb2dPolyline
 66
     1
 10
0.0
 20
0.0
 30
0.0
 70
   128
  0
VERTEX
  5
32F
330
32E
100
AcDbEntity
  8
Sichtbare Kanten(TC_020513_DIN)
100
AcDbVertex
100
AcDb2dVertex
 10
129.4589728225235
 20
100.8015173289461
 30
0.0
  0
VERTEX
  5
330
330
32E
100
AcDbEntity
  8
Sichtbare Kanten(TC_020513_DIN)
100
AcDbVertex
100
AcDb2dVertex
 10
129.7734159339432
 20
100.7994204375429
 30
0.0
  0
VERTEX
  5
332
330
32E
100
AcDbEntity
  8
Sichtbare Kanten(TC_020513_DIN)
100
AcDbVertex
100
AcDb2dVertex
 10
130.0919479239945
 20
100.7973056647462
 30
0.0
  0
VERTEX
  5
333
330
32E
100
AcDbEntity
  8
Sichtbare Kanten(TC_020513_DIN)
100
AcDbVertex
100
AcDb2dVertex
 10
130.4119557250504
 20
100.7951896998567
 30
0.0
  0
VERTEX
  5
334
330
32E
100
AcDbEntity
  8
Sichtbare Kanten(TC_020513_DIN)
100
AcDbVertex
100
AcDb2dVertex
 10
130.7308238852982
 20
100.7930904242677
 30
0.0
  0
VERTEX
  5
335
330
32E
100
AcDbEntity
  8
Sichtbare Kanten(TC_020513_DIN)
100
AcDbVertex
100
AcDb2dVertex
 10
131.0459441054825
 20
100.7910245272798
 30
0.0
  0
VERTEX
  5
336
330
32E
100
AcDbEntity
  8
Sichtbare Kanten(TC_020513_DIN)
100
AcDbVertex
100
AcDb2dVertex
 10
131.3547033179764
 20
100.7890098902864
 30
0.0
  0
VERTEX
  5
337
330
32E
100
AcDbEntity
  8
Sichtbare Kanten(TC_020513_DIN)
100
AcDbVertex
100
AcDb2dVertex
 10
131.6546219695572
 20
100.7870608184022
 30
0.0
  0
VERTEX
  5
338
330
32E
100
AcDbEntity
  8
Sichtbare Kanten(TC_020513_DIN)
100
AcDbVertex
100
AcDb2dVertex
 10
131.9438070167069
 20
100.7851892325563
 30
0.0
  0
VERTEX
  5
339
330
32E
100
AcDbEntity
  8
Sichtbare Kanten(TC_020513_DIN)
100
AcDbVertex
100
AcDb2dVertex
 10
132.2205036986832
 20
100.7834058615846
 30
0.0
  0
VERTEX
  5
33A
330
32E
100
AcDbEntity
  8
Sichtbare Kanten(TC_020513_DIN)
100
AcDbVertex
100
AcDb2dVertex
 10
132.4829715598587
 20
100.7817202422304
 30
0.0
  0
VERTEX
  5
33B
330
32E
100
AcDbEntity
  8
Sichtbare Kanten(TC_020513_DIN)
100
AcDbVertex
100
AcDb2dVertex
 10
132.7294582236771
 20
100.7801431033296
 30
0.0
  0
VERTEX
  5
33C
330
32E
100
AcDbEntity
  8
Sichtbare Kanten(TC_020513_DIN)
100
AcDbVertex
100
AcDb2dVertex
 10
132.9582184661392
 20
100.7786851737184
 30
0.0
  0
VERTEX
  5
33D
330
32E
100
AcDbEntity
  8
Sichtbare Kanten(TC_020513_DIN)
100
AcDbVertex
100
AcDb2dVertex
 10
133.172003637648
 20
100.7773261878175
 30
0.0
  0
VERTEX
  5
33E
330
32E
100
AcDbEntity
  8
Sichtbare Kanten(TC_020513_DIN)
100
AcDbVertex
100
AcDb2dVertex
 10
133.3741635192398
 20
100.7760446879549
 30
0.0
  0
VERTEX
  5
33F
330
32E
100
AcDbEntity
  8
Sichtbare Kanten(TC_020513_DIN)
100
AcDbVertex
100
AcDb2dVertex
 10
133.5627621520523
 20
100.7748525950594
 30
0.0
  0
VERTEX
  5
340
330
32E
100
AcDbEntity
  8
Sichtbare Kanten(TC_020513_DIN)
100
AcDbVertex
100
AcDb2dVertex
 10
133.7358564246658
 20
100.77376183006
 30
0.0
  0
VERTEX
  5
341
330
32E
100
AcDbEntity
  8
Sichtbare Kanten(TC_020513_DIN)
100
AcDbVertex
100
AcDb2dVertex
 10
133.8915103782181
 20
100.7727831217927
 30
0.0
  0
VERTEX
  5
342
330
32E
100
AcDbEntity
  8
Sichtbare Kanten(TC_020513_DIN)
100
AcDbVertex
100
AcDb2dVertex
 10
134.0277785171036
 20
100.7719271990938
 30
0.0
  0
VERTEX
  5
343
330
32E
100
AcDbEntity
  8
Sichtbare Kanten(TC_020513_DIN)
100
AcDbVertex
100
AcDb2dVertex
 10
134.1430491317276
 20
100.7712047907991
 30
0.0
  0
VERTEX
  5
344
330
32E
100
AcDbEntity
  8
Sichtbare Kanten(TC_020513_DIN)
100
AcDbVertex
100
AcDb2dVertex
 10
134.2370790351395
 20
100.7706170890016
 30
0.0
  0
VERTEX
  5
345
330
32E
100
AcDbEntity
  8
Sichtbare Kanten(TC_020513_DIN)
100
AcDbVertex
100
AcDb2dVertex
 10
134.3099969733719
 20
100.7701617095155
 30
0.0
  0
VERTEX
  5
346
330
32E
100
AcDbEntity
  8
Sichtbare Kanten(TC_020513_DIN)
100
AcDbVertex
100
AcDb2dVertex
 10
134.361926924086
 20
100.7698374602479
 30
0.0
  0
VERTEX
  5
347
330
32E
100
AcDbEntity
  8
Sichtbare Kanten(TC_020513_DIN)
100
AcDbVertex
100
AcDb2dVertex
 10
134.3929904807572
 20
100.7696443411989
 30
0.0
  0
VERTEX
  5
348
330
32E
100
AcDbEntity
  8
Sichtbare Kanten(TC_020513_DIN)
100
AcDbVertex
100
AcDb2dVertex
 10
134.4033187736038
 20
100.7695799681825
 30
0.0
  0
SEQEND
  5
331
330
32E
100
AcDbEntity
  8
Sichtbare Kanten(TC_020513_DIN)
  0
LINE
  5
349
330
37
100
AcDbEntity
  8
Sichtbare Kanten(TC_020513_DIN)
100
AcDbLine
 10
60.61463220629355
 20
100.8017109693026
 30
0.0
 11
129.401040260653
 21
100.8017109693026
 31
0.0
  0
LINE
  5
34A
330
37
100
AcDbEntity
  8
Sichtbare Kanten(TC_020513_DIN)
100
AcDbLine
 10
129.4589718771679
 20
100.5130358347078
 30
0.0
 11
60.45897187716795
 21
100.5130358347078
 31
0.0
  0
LINE
  5
34B
330
37
100
AcDbEntity
  8
Sichtbare Kanten(TC_020513_DIN)
100
AcDbLine
 10
129.4589718771679
 20
100.5130358347078
 30
0.0
 11
133.9589718771679
 21
100.5130358347078
 31
0.0
  0
LINE
  5
34C
330
37
100
AcDbEntity
  8
Sichtbare Kanten(TC_020513_DIN)
100
AcDbLine
 10
134.4033185337033
 20
100.769579496472
 30
0.0
 11
133.9589718771679
 21
100.5130358347078
 31
0.0
  0
LINE
  5
34D
330
37
100
AcDbEntity
  8
Sichtbare Kanten(TC_020513_DIN)
100
AcDbLine
 10
133.9589718771679
 20
100.0130358347078
 30
0.0
 11
134.4284322120191
 21
99.7419927840076
 31
0.0
  0
POLYLINE
  5
34E
330
37
100
AcDbEntity
  8
Sichtbare Kanten(TC_020513_DIN)
100
AcDb2dPolyline
 66
     1
 10
0.0
 20
0.0
 30
0.0
 70
   128
  0
VERTEX
  5
34F
330
34E
100
AcDbEntity
  8
Sichtbare Kanten(TC_020513_DIN)
100
AcDbVertex
100
AcDb2dVertex
 10
134.4284314025406
 20
99.74199231597612
 30
0.0
  0
VERTEX
  5
350
330
34E
100
AcDbEntity
  8
Sichtbare Kanten(TC_020513_DIN)
100
AcDbVertex
100
AcDb2dVertex
 10
134.4180387366776
 20
99.74195774528215
 30
0.0
  0
VERTEX
  5
352
330
34E
100
AcDbEntity
  8
Sichtbare Kanten(TC_020513_DIN)
100
AcDbVertex
100
AcDb2dVertex
 10
134.3867772925858
 20
99.74185045692156
 30
0.0
  0
VERTEX
  5
353
330
34E
100
AcDbEntity
  8
Sichtbare Kanten(TC_020513_DIN)
100
AcDbVertex
100
AcDb2dVertex
 10
134.3345254767899
 20
99.74167164298723
 30
0.0
  0
VERTEX
  5
354
330
34E
100
AcDbEntity
  8
Sichtbare Kanten(TC_020513_DIN)
100
AcDbVertex
100
AcDb2dVertex
 10
134.2611640800003
 20
99.74142011138628
 30
0.0
  0
VERTEX
  5
355
330
34E
100
AcDbEntity
  8
Sichtbare Kanten(TC_020513_DIN)
100
AcDbVertex
100
AcDb2dVertex
 10
134.166569124556
 20
99.7410946700258
 30
0.0
  0
VERTEX
  5
356
330
34E
100
AcDbEntity
  8
Sichtbare Kanten(TC_020513_DIN)
100
AcDbVertex
100
AcDb2dVertex
 10
134.0506190169815
 20
99.7406965109987
 30
0.0
  0
VERTEX
  5
357
330
34E
100
AcDbEntity
  8
Sichtbare Kanten(TC_020513_DIN)
100
AcDbVertex
100
AcDb2dVertex
 10
133.913552175856
 20
99.74022444221208
 30
0.0
  0
VERTEX
  5
358
330
34E
100
AcDbEntity
  8
Sichtbare Kanten(TC_020513_DIN)
100
AcDbVertex
100
AcDb2dVertex
 10
133.7569803107742
 20
99.73968323203752
 30
0.0
  0
VERTEX
  5
359
330
34E
100
AcDbEntity
  8
Sichtbare Kanten(TC_020513_DIN)
100
AcDbVertex
100
AcDb2dVertex
 10
133.5828536857132
 20
99.73908122512529
 30
0.0
  0
VERTEX
  5
35A
330
34E
100
AcDbEntity
  8
Sichtbare Kanten(TC_020513_DIN)
100
AcDbVertex
100
AcDb2dVertex
 10
133.3931177962784
 20
99.73842318984697
 30
0.0
  0
VERTEX
  5
35B
330
34E
100
AcDbEntity
  8
Sichtbare Kanten(TC_020513_DIN)
100
AcDbVertex
100
AcDb2dVertex
 10
133.1897276748184
 20
99.73771627875994
 30
0.0
  0
VERTEX
  5
35C
330
34E
100
AcDbEntity
  8
Sichtbare Kanten(TC_020513_DIN)
100
AcDbVertex
100
AcDb2dVertex
 10
132.9746240485672
 20
99.73696764442156
 30
0.0
  0
VERTEX
  5
35D
330
34E
100
AcDbEntity
  8
Sichtbare Kanten(TC_020513_DIN)
100
AcDbVertex
100
AcDb2dVertex
 10
132.7446192611221
 20
99.73616298171709
 30
0.0
  0
VERTEX
  5
35E
330
34E
100
AcDbEntity
  8
Sichtbare Kanten(TC_020513_DIN)
100
AcDbVertex
100
AcDb2dVertex
 10
132.4967974532608
 20
99.73529394599626
 30
0.0
  0
VERTEX
  5
35F
330
34E
100
AcDbEntity
  8
Sichtbare Kanten(TC_020513_DIN)
100
AcDbVertex
100
AcDb2dVertex
 10
132.2329276908402
 20
99.73436530563066
 30
0.0
  0
VERTEX
  5
360
330
34E
100
AcDbEntity
  8
Sichtbare Kanten(TC_020513_DIN)
100
AcDbVertex
100
AcDb2dVertex
 10
131.9547766555313
 20
99.73338421317766
 30
0.0
  0
VERTEX
  5
361
330
34E
100
AcDbEntity
  8
Sichtbare Kanten(TC_020513_DIN)
100
AcDbVertex
100
AcDb2dVertex
 10
131.6641181815628
 20
99.73235424491594
 30
0.0
  0
VERTEX
  5
362
330
34E
100
AcDbEntity
  8
Sichtbare Kanten(TC_020513_DIN)
100
AcDbVertex
100
AcDb2dVertex
 10
131.36271656642
 20
99.73128255340288
 30
0.0
  0
VERTEX
  5
363
330
34E
100
AcDbEntity
  8
Sichtbare Kanten(TC_020513_DIN)
100
AcDbVertex
100
AcDb2dVertex
 10
131.0524886954788
 20
99.73017509910295
 30
0.0
  0
VERTEX
  5
364
330
34E
100
AcDbEntity
  8
Sichtbare Kanten(TC_020513_DIN)
100
AcDbVertex
100
AcDb2dVertex
 10
130.735926042891
 20
99.72904022666643
 30
0.0
  0
VERTEX
  5
365
330
34E
100
AcDbEntity
  8
Sichtbare Kanten(TC_020513_DIN)
100
AcDbVertex
100
AcDb2dVertex
 10
130.4156631339554
 20
99.72788747283647
 30
0.0
  0
VERTEX
  5
366
330
34E
100
AcDbEntity
  8
Sichtbare Kanten(TC_020513_DIN)
100
AcDbVertex
100
AcDb2dVertex
 10
130.0943297255997
 20
99.72672637435625
 30
0.0
  0
VERTEX
  5
367
330
34E
100
AcDbEntity
  8
Sichtbare Kanten(TC_020513_DIN)
100
AcDbVertex
100
AcDb2dVertex
 10
129.7745555747513
 20
99.72556646796892
 30
0.0
  0
VERTEX
  5
368
330
34E
100
AcDbEntity
  8
Sichtbare Kanten(TC_020513_DIN)
100
AcDbVertex
100
AcDb2dVertex
 10
129.4589728225235
 20
99.72441848251055
 30
0.0
  0
SEQEND
  5
351
330
34E
100
AcDbEntity
  8
Sichtbare Kanten(TC_020513_DIN)
  0
LINE
  5
369
330
37
100
AcDbEntity
  8
Sichtbare Kanten(TC_020513_DIN)
100
AcDbLine
 10
129.4589718771679
 20
100.0130358347078
 30
0.0
 11
133.9589718771679
 21
100.0130358347078
 31
0.0
  0
LINE
  5
36A
330
37
100
AcDbEntity
  8
Sichtbare Kanten(TC_020513_DIN)
100
AcDbLine
 10
55.95897187716795
 20
100.0130358347078
 30
0.0
 11
55.5886389562845
 21
99.79922402314597
 31
0.0
  0
LINE
  5
36B
330
37
100
AcDbEntity
  8
Sichtbare Kanten(TC_020513_DIN)
100
AcDbLine
 10
55.61099415441831
 20
100.7139408666093
 30
0.0
 11
55.95897187716795
 21
100.5130358347078
 31
0.0
  0
LINE
  5
36C
330
37
100
AcDbEntity
  8
Sichtbare Kanten(TC_020513_DIN)
100
AcDbLine
 10
55.95897187716795
 20
100.5130358347078
 30
0.0
 11
55.95897187716795
 21
100.0130358347078
 31
0.0
  0
LINE
  5
36D
330
37
100
AcDbEntity
  8
Sichtbare Kanten(TC_020513_DIN)
100
AcDbLine
 10
55.95897187716795
 20
100.0130358347078
 30
0.0
 11
60.45897187716795
 21
100.0130358347078
 31
0.0
  0
LINE
  5
36E
330
37
100
AcDbEntity
  8
Sichtbare Kanten(TC_020513_DIN)
100
AcDbLine
 10
55.95897187716795
 20
100.5130358347078
 30
0.0
 11
60.45897187716795
 21
100.5130358347078
 31
0.0
  0
POLYLINE
  5
36F
330
37
100
AcDbEntity
  8
Sichtbare Kanten(TC_020513_DIN)
100
AcDb2dPolyline
 66
     1
 10
0.0
 20
0.0
 30
0.0
 70
   128
  0
VERTEX
  5
370
330
36F
100
AcDbEntity
  8
Sichtbare Kanten(TC_020513_DIN)
100
AcDbVertex
100
AcDb2dVertex
 10
60.45897186884923
 20
99.72532685729692
 30
0.0
  0
VERTEX
  5
371
330
36F
100
AcDbEntity
  8
Sichtbare Kanten(TC_020513_DIN)
100
AcDbVertex
100
AcDb2dVertex
 10
60.14785231242223
 20
99.72997840377519
 30
0.0
  0
VERTEX
  5
373
330
36F
100
AcDbEntity
  8
Sichtbare Kanten(TC_020513_DIN)
100
AcDbVertex
100
AcDb2dVertex
 10
59.83294190058751
 20
99.73469670745561
 30
0.0
  0
VERTEX
  5
374
330
36F
100
AcDbEntity
  8
Sichtbare Kanten(TC_020513_DIN)
100
AcDbVertex
100
AcDb2dVertex
 10
59.51680124888463
 20
99.73944362136553
 30
0.0
  0
VERTEX
  5
375
330
36F
100
AcDbEntity
  8
Sichtbare Kanten(TC_020513_DIN)
100
AcDbVertex
100
AcDb2dVertex
 10
59.20198858866735
 20
99.74417861434648
 30
0.0
  0
VERTEX
  5
376
330
36F
100
AcDbEntity
  8
Sichtbare Kanten(TC_020513_DIN)
100
AcDbVertex
100
AcDb2dVertex
 10
58.89106215128942
 20
99.74886353942583
 30
0.0
  0
VERTEX
  5
377
330
36F
100
AcDbEntity
  8
Sichtbare Kanten(TC_020513_DIN)
100
AcDbVertex
100
AcDb2dVertex
 10
58.58658255229039
 20
99.7534614417238
 30
0.0
  0
VERTEX
  5
378
330
36F
100
AcDbEntity
  8
Sichtbare Kanten(TC_020513_DIN)
100
AcDbVertex
100
AcDb2dVertex
 10
58.29097927699132
 20
99.75793417426775
 30
0.0
  0
VERTEX
  5
379
330
36F
100
AcDbEntity
  8
Sichtbare Kanten(TC_020513_DIN)
100
AcDbVertex
100
AcDb2dVertex
 10
58.00610722193761
 20
99.76225193473528
 30
0.0
  0
VERTEX
  5
37A
330
36F
100
AcDbEntity
  8
Sichtbare Kanten(TC_020513_DIN)
100
AcDbVertex
100
AcDb2dVertex
 10
57.73365200648351
 20
99.76638968917558
 30
0.0
  0
VERTEX
  5
37B
330
36F
100
AcDbEntity
  8
Sichtbare Kanten(TC_020513_DIN)
100
AcDbVertex
100
AcDb2dVertex
 10
57.47529924998326
 20
99.77032001945207
 30
0.0
  0
VERTEX
  5
37C
330
36F
100
AcDbEntity
  8
Sichtbare Kanten(TC_020513_DIN)
100
AcDbVertex
100
AcDb2dVertex
 10
57.23273934016271
 20
99.77401550742815
 30
0.0
  0
VERTEX
  5
37D
330
36F
100
AcDbEntity
  8
Sichtbare Kanten(TC_020513_DIN)
100
AcDbVertex
100
AcDb2dVertex
 10
57.0076555121903
 20
99.77744992706011
 30
0.0
  0
VERTEX
  5
37E
330
36F
100
AcDbEntity
  8
Sichtbare Kanten(TC_020513_DIN)
100
AcDbVertex
100
AcDb2dVertex
 10
56.79773987422032
 20
99.78065784904192
 30
0.0
  0
VERTEX
  5
37F
330
36F
100
AcDbEntity
  8
Sichtbare Kanten(TC_020513_DIN)
100
AcDbVertex
100
AcDb2dVertex
 10
56.59923971781774
 20
99.78369649383257
 30
0.0
  0
VERTEX
  5
380
330
36F
100
AcDbEntity
  8
Sichtbare Kanten(TC_020513_DIN)
100
AcDbVertex
100
AcDb2dVertex
 10
56.41403139720006
 20
99.78653367492388
 30
0.0
  0
VERTEX
  5
381
330
36F
100
AcDbEntity
  8
Sichtbare Kanten(TC_020513_DIN)
100
AcDbVertex
100
AcDb2dVertex
 10
56.24402702937169
 20
99.78914197417925
 30
0.0
  0
VERTEX
  5
382
330
36F
100
AcDbEntity
  8
Sichtbare Kanten(TC_020513_DIN)
100
AcDbVertex
100
AcDb2dVertex
 10
56.09114111552282
 20
99.7914903971834
 30
0.0
  0
VERTEX
  5
383
330
36F
100
AcDbEntity
  8
Sichtbare Kanten(TC_020513_DIN)
100
AcDbVertex
100
AcDb2dVertex
 10
55.95728338847203
 20
99.79354794952104
 30
0.0
  0
VERTEX
  5
384
330
36F
100
AcDbEntity
  8
Sichtbare Kanten(TC_020513_DIN)
100
AcDbVertex
100
AcDb2dVertex
 10
55.84406794199987
 20
99.79528959724138
 30
0.0
  0
VERTEX
  5
385
330
36F
100
AcDbEntity
  8
Sichtbare Kanten(TC_020513_DIN)
100
AcDbVertex
100
AcDb2dVertex
 10
55.75174511561437
 20
99.79671057197283
 30
0.0
  0
VERTEX
  5
386
330
36F
100
AcDbEntity
  8
Sichtbare Kanten(TC_020513_DIN)
100
AcDbVertex
100
AcDb2dVertex
 10
55.68017901072545
 20
99.79781325790117
 30
0.0
  0
VERTEX
  5
387
330
36F
100
AcDbEntity
  8
Sichtbare Kanten(TC_020513_DIN)
100
AcDbVertex
100
AcDb2dVertex
 10
55.62923134455724
 20
99.79859765502641
 30
0.0
  0
VERTEX
  5
388
330
36F
100
AcDbEntity
  8
Sichtbare Kanten(TC_020513_DIN)
100
AcDbVertex
100
AcDb2dVertex
 10
55.59876383433385
 20
99.79906733962724
 30
0.0
  0
VERTEX
  5
389
330
36F
100
AcDbEntity
  8
Sichtbare Kanten(TC_020513_DIN)
100
AcDbVertex
100
AcDb2dVertex
 10
55.58863819727941
 20
99.79922350379656
 30
0.0
  0
SEQEND
  5
372
330
36F
100
AcDbEntity
  8
Sichtbare Kanten(TC_020513_DIN)
  0
LINE
  5
38A
330
37
100
AcDbEntity
  8
Sichtbare Kanten(TC_020513_DIN)
100
AcDbLine
 10
129.4589718771679
 20
100.0130358347078
 30
0.0
 11
60.45897187716795
 21
100.0130358347078
 31
0.0
  0
ELLIPSE
  5
38B
330
37
100
AcDbEntity
  8
Sichtbare Kanten(TC_020513_DIN)
100
AcDbEllipse
 10
60.65885301611412
 20
102.6111120460611
 30
0.0
 11
-5.001866565402878
 21
-0.0610394743223347
 31
0.0
210
0.0
220
0.0
230
1.0
 40
0.5770057848514301
 41
1.523784084170582
 42
1.549650056693689
  0
LINE
  5
38C
330
37
100
AcDbEntity
  8
Sichtbare Kanten(TC_020513_DIN)
100
AcDbLine
 10
129.4273701340989
 20
99.72436070011298
 30
0.0
 11
60.5883023328476
 21
99.72436070011298
 31
0.0
  0
ELLIPSE
  5
38D
330
37
100
AcDbEntity
  8
Sichtbare Kanten(TC_020513_DIN)
100
AcDbEllipse
 10
129.3568194508324
 20
102.6111120460611
 30
0.0
 11
-5.001866565402879
 21
0.0610394743223342
 31
0.0
210
0.0
220
0.0
230
1.0
 40
0.5770057848514301
 41
1.5919425968961
 42
1.598261382472639
  0
LINE
  5
38E
330
37
100
AcDbEntity
  8
Sichtbare Kanten(TC_020513_DIN)
100
AcDbLine
 10
133.9589718771679
 20
100.5130358347078
 30
0.0
 11
133.9589718771679
 21
100.0130358347078
 31
0.0
  0
LINE
  5
38F
330
37
100
AcDbEntity
  8
Sichtbare Kanten(TC_020513_DIN)
100
AcDbLine
 10
55.5886389562845
 20
99.79922402314597
 30
0.0
 11
55.61099415441831
 21
100.7139408666093
 31
0.0
  0
LINE
  5
390
330
37
100
AcDbEntity
  8
Sichtbare Kanten(TC_020513_DIN)
100
AcDbLine
 10
134.354454177398
 20
102.7689824760344
 30
0.0
 11
134.3307034994085
 21
103.7407987431323
 31
0.0
  0
LINE
  5
391
330
37
100
AcDbEntity
  8
Sichtbare Kanten(TC_020513_DIN)
100
AcDbLine
 10
134.4033185337033
 20
100.769579496472
 30
0.0
 11
134.3795678557139
 21
101.7413957635699
 31
0.0
  0
LINE
  5
392
330
37
100
AcDbEntity
  8
Sichtbare Kanten(TC_020513_DIN)
100
AcDbLine
 10
134.4521828900086
 20
98.77017651690966
 30
0.0
 11
134.4284322120191
 21
99.7419927840076
 31
0.0
  0
LINE
  5
393
330
37
100
AcDbEntity
  8
Sichtbare Kanten(TC_020513_DIN)
100
AcDbLine
 10
134.7578362334732
 20
86.26363285514543
 30
0.0
 11
134.4772965683245
 21
97.74258980444521
 31
0.0
  0
LINE
  5
394
330
37
100
AcDbEntity
  8
Sichtbare Kanten(TC_020513_DIN)
100
AcDbLine
 10
134.3055898210927
 20
104.7683854555967
 30
0.0
 11
134.0735309730859
 21
114.2636328551454
 31
0.0
  0
LINE
  5
395
330
37
100
AcDbEntity
  8
Sichtbare Kanten(TC_020513_DIN)
100
AcDbLine
 10
55.68916507160945
 20
103.9124924605474
 30
0.0
 11
55.65849873189877
 21
102.6577052163089
 31
0.0
  0
LINE
  5
396
330
37
100
AcDbEntity
  8
Sichtbare Kanten(TC_020513_DIN)
100
AcDbLine
 10
134.0228362334732
 20
114.2636328551454
 30
0.0
 11
134.0735309730859
 21
114.2636328551454
 31
0.0
  0
LINE
  5
397
330
37
100
AcDbEntity
  8
Sichtbare Kanten(TC_020513_DIN)
100
AcDbLine
 10
55.63890201394698
 20
101.8558582418467
 30
0.0
 11
55.61099415441831
 21
100.7139408666093
 31
0.0
  0
LINE
  5
398
330
37
100
AcDbEntity
  8
Sichtbare Kanten(TC_020513_DIN)
100
AcDbLine
 10
55.5886389562845
 20
99.79922402314597
 30
0.0
 11
55.56348957693786
 21
98.77017651690966
 31
0.0
  0
POLYLINE
  5
399
330
37
100
AcDbEntity
  8
Sichtbare Kanten(TC_020513_DIN)
100
AcDb2dPolyline
 66
     1
 10
0.0
 20
0.0
 30
0.0
 70
   128
  0
VERTEX
  5
39A
330
399
100
AcDbEntity
  8
Sichtbare Kanten(TC_020513_DIN)
100
AcDbVertex
100
AcDb2dVertex
 10
55.56348980555577
 20
98.77017672988603
 30
0.0
  0
VERTEX
  5
39B
330
399
100
AcDbEntity
  8
Sichtbare Kanten(TC_020513_DIN)
100
AcDbVertex
100
AcDb2dVertex
 10
55.57381571421666
 20
98.77024110290239
 30
0.0
  0
VERTEX
  5
39D
330
399
100
AcDbEntity
  8
Sichtbare Kanten(TC_020513_DIN)
100
AcDbVertex
100
AcDb2dVertex
 10
55.6048816550736
 20
98.77043422195146
 30
0.0
  0
VERTEX
  5
39E
330
399
100
AcDbEntity
  8
Sichtbare Kanten(TC_020513_DIN)
100
AcDbVertex
100
AcDb2dVertex
 10
55.65681160578771
 20
98.77075847121904
 30
0.0
  0
VERTEX
  5
39F
330
399
100
AcDbEntity
  8
Sichtbare Kanten(TC_020513_DIN)
100
AcDbVertex
100
AcDb2dVertex
 10
55.72972715983434
 20
98.77121385070513
 30
0.0
  0
VERTEX
  5
3A0
330
399
100
AcDbEntity
  8
Sichtbare Kanten(TC_020513_DIN)
100
AcDbVertex
100
AcDb2dVertex
 10
55.82375944743199
 20
98.77180274459551
 30
0.0
  0
VERTEX
  5
3A1
330
399
100
AcDbEntity
  8
Sichtbare Kanten(TC_020513_DIN)
100
AcDbVertex
100
AcDb2dVertex
 10
55.93903006205602
 20
98.77252396079729
 30
0.0
  0
VERTEX
  5
3A2
330
399
100
AcDbEntity
  8
Sichtbare Kanten(TC_020513_DIN)
100
AcDbVertex
100
AcDb2dVertex
 10
56.07529820094152
 20
98.77337988349626
 30
0.0
  0
VERTEX
  5
3A3
330
399
100
AcDbEntity
  8
Sichtbare Kanten(TC_020513_DIN)
100
AcDbVertex
100
AcDb2dVertex
 10
56.23095215449376
 20
98.77435859176348
 30
0.0
  0
VERTEX
  5
3A4
330
399
100
AcDbEntity
  8
Sichtbare Kanten(TC_020513_DIN)
100
AcDbVertex
100
AcDb2dVertex
 10
56.40404642710729
 20
98.77544935676286
 30
0.0
  0
VERTEX
  5
3A5
330
399
100
AcDbEntity
  8
Sichtbare Kanten(TC_020513_DIN)
100
AcDbVertex
100
AcDb2dVertex
 10
56.59264505991979
 20
98.77664144965837
 30
0.0
  0
VERTEX
  5
3A6
330
399
100
AcDbEntity
  8
Sichtbare Kanten(TC_020513_DIN)
100
AcDbVertex
100
AcDb2dVertex
 10
56.79480255732579
 20
98.77792294952104
 30
0.0
  0
VERTEX
  5
3A7
330
399
100
AcDbEntity
  8
Sichtbare Kanten(TC_020513_DIN)
100
AcDbVertex
100
AcDb2dVertex
 10
57.00859011302037
 20
98.77928193542192
 30
0.0
  0
VERTEX
  5
3A8
330
399
100
AcDbEntity
  8
Sichtbare Kanten(TC_020513_DIN)
100
AcDbVertex
100
AcDb2dVertex
 10
57.23735035548253
 20
98.78074105712602
 30
0.0
  0
VERTEX
  5
3A9
330
399
100
AcDbEntity
  8
Sichtbare Kanten(TC_020513_DIN)
100
AcDbVertex
100
AcDb2dVertex
 10
57.48383701930089
 20
98.78231819602678
 30
0.0
  0
VERTEX
  5
3AA
330
399
100
AcDbEntity
  8
Sichtbare Kanten(TC_020513_DIN)
100
AcDbVertex
100
AcDb2dVertex
 10
57.74630488047643
 20
98.78400262328813
 30
0.0
  0
VERTEX
  5
3AB
330
399
100
AcDbEntity
  8
Sichtbare Kanten(TC_020513_DIN)
100
AcDbVertex
100
AcDb2dVertex
 10
58.02300156245275
 20
98.78578718635271
 30
0.0
  0
VERTEX
  5
3AC
330
399
100
AcDbEntity
  8
Sichtbare Kanten(TC_020513_DIN)
100
AcDbVertex
100
AcDb2dVertex
 10
58.31218422541661
 20
98.78765758010576
 30
0.0
  0
VERTEX
  5
3AD
330
399
100
AcDbEntity
  8
Sichtbare Kanten(TC_020513_DIN)
100
AcDbVertex
100
AcDb2dVertex
 10
58.61210526118322
 20
98.78960665198992
 30
0.0
  0
VERTEX
  5
3AE
330
399
100
AcDbEntity
  8
Sichtbare Kanten(TC_020513_DIN)
100
AcDbVertex
100
AcDb2dVertex
 10
58.92086447367711
 20
98.79162128898332
 30
0.0
  0
VERTEX
  5
3AF
330
399
100
AcDbEntity
  8
Sichtbare Kanten(TC_020513_DIN)
100
AcDbVertex
100
AcDb2dVertex
 10
59.23598469386144
 20
98.79368718597124
 30
0.0
  0
VERTEX
  5
3B0
330
399
100
AcDbEntity
  8
Sichtbare Kanten(TC_020513_DIN)
100
AcDbVertex
100
AcDb2dVertex
 10
59.55485285410924
 20
98.79578646156023
 30
0.0
  0
VERTEX
  5
3B1
330
399
100
AcDbEntity
  8
Sichtbare Kanten(TC_020513_DIN)
100
AcDbVertex
100
AcDb2dVertex
 10
59.87486065516515
 20
98.79790242644975
 30
0.0
  0
VERTEX
  5
3B2
330
399
100
AcDbEntity
  8
Sichtbare Kanten(TC_020513_DIN)
100
AcDbVertex
100
AcDb2dVertex
 10
60.19339026103063
 20
98.80001719924639
 30
0.0
  0
VERTEX
  5
3B3
330
399
100
AcDbEntity
  8
Sichtbare Kanten(TC_020513_DIN)
100
AcDbVertex
100
AcDb2dVertex
 10
60.5078357566361
 20
98.80211409064958
 30
0.0
  0
SEQEND
  5
39C
330
399
100
AcDbEntity
  8
Sichtbare Kanten(TC_020513_DIN)
  0
ELLIPSE
  5
3B4
330
37
100
AcDbEntity
  8
Sichtbare Kanten(TC_020513_DIN)
100
AcDbEllipse
 10
60.49521716672171
 20
95.91555664379212
 30
0.0
 11
5.001866565402878
 21
0.0610394743223344
 31
0.0
210
0.0
220
0.0
230
1.0
 40
0.57700578485143
 41
1.549650056693691
 42
1.561232234189123
  0
ELLIPSE
  5
3B5
330
37
100
AcDbEntity
  8
Sichtbare Kanten(TC_020513_DIN)
100
AcDbEllipse
 10
129.5204553002248
 20
95.91555664379212
 30
0.0
 11
5.001866565402878
 21
-0.0610394743223359
 31
0.0
210
0.0
220
0.0
230
1.0
 40
0.5770057848514301
 41
1.580360419400674
 42
1.591942596896103
  0
POLYLINE
  5
3B6
330
37
100
AcDbEntity
  8
Sichtbare Kanten(TC_020513_DIN)
100
AcDb2dPolyline
 66
     1
 10
0.0
 20
0.0
 30
0.0
 70
   128
  0
VERTEX
  5
3B7
330
3B6
100
AcDbEntity
  8
Sichtbare Kanten(TC_020513_DIN)
100
AcDbVertex
100
AcDb2dVertex
 10
129.5078367103104
 20
98.80211409064958
 30
0.0
  0
VERTEX
  5
3B8
330
3B6
100
AcDbEntity
  8
Sichtbare Kanten(TC_020513_DIN)
100
AcDbVertex
100
AcDb2dVertex
 10
129.8222822059159
 20
98.80001719924639
 30
0.0
  0
VERTEX
  5
3BA
330
3B6
100
AcDbEntity
  8
Sichtbare Kanten(TC_020513_DIN)
100
AcDbVertex
100
AcDb2dVertex
 10
130.1408118117813
 20
98.79790242644975
 30
0.0
  0
VERTEX
  5
3BB
330
3B6
100
AcDbEntity
  8
Sichtbare Kanten(TC_020513_DIN)
100
AcDbVertex
100
AcDb2dVertex
 10
130.4608196128372
 20
98.79578646156023
 30
0.0
  0
VERTEX
  5
3BC
330
3B6
100
AcDbEntity
  8
Sichtbare Kanten(TC_020513_DIN)
100
AcDbVertex
100
AcDb2dVertex
 10
130.7796877730851
 20
98.79368718597124
 30
0.0
  0
VERTEX
  5
3BD
330
3B6
100
AcDbEntity
  8
Sichtbare Kanten(TC_020513_DIN)
100
AcDbVertex
100
AcDb2dVertex
 10
131.0948079932694
 20
98.79162128898332
 30
0.0
  0
VERTEX
  5
3BE
330
3B6
100
AcDbEntity
  8
Sichtbare Kanten(TC_020513_DIN)
100
AcDbVertex
100
AcDb2dVertex
 10
131.4035672057633
 20
98.78960665198992
 30
0.0
  0
VERTEX
  5
3BF
330
3B6
100
AcDbEntity
  8
Sichtbare Kanten(TC_020513_DIN)
100
AcDbVertex
100
AcDb2dVertex
 10
131.7034882415299
 20
98.78765758010576
 30
0.0
  0
VERTEX
  5
3C0
330
3B6
100
AcDbEntity
  8
Sichtbare Kanten(TC_020513_DIN)
100
AcDbVertex
100
AcDb2dVertex
 10
131.9926709044937
 20
98.78578718635271
 30
0.0
  0
VERTEX
  5
3C1
330
3B6
100
AcDbEntity
  8
Sichtbare Kanten(TC_020513_DIN)
100
AcDbVertex
100
AcDb2dVertex
 10
132.26936758647
 20
98.78400262328813
 30
0.0
  0
VERTEX
  5
3C2
330
3B6
100
AcDbEntity
  8
Sichtbare Kanten(TC_020513_DIN)
100
AcDbVertex
100
AcDb2dVertex
 10
132.5318354476456
 20
98.78231819602678
 30
0.0
  0
VERTEX
  5
3C3
330
3B6
100
AcDbEntity
  8
Sichtbare Kanten(TC_020513_DIN)
100
AcDbVertex
100
AcDb2dVertex
 10
132.778322111464
 20
98.78074105712602
 30
0.0
  0
VERTEX
  5
3C4
330
3B6
100
AcDbEntity
  8
Sichtbare Kanten(TC_020513_DIN)
100
AcDbVertex
100
AcDb2dVertex
 10
133.0070823539261
 20
98.77928193542192
 30
0.0
  0
VERTEX
  5
3C5
330
3B6
100
AcDbEntity
  8
Sichtbare Kanten(TC_020513_DIN)
100
AcDbVertex
100
AcDb2dVertex
 10
133.2208699096207
 20
98.77792294952104
 30
0.0
  0
VERTEX
  5
3C6
330
3B6
100
AcDbEntity
  8
Sichtbare Kanten(TC_020513_DIN)
100
AcDbVertex
100
AcDb2dVertex
 10
133.4230274070267
 20
98.77664144965837
 30
0.0
  0
VERTEX
  5
3C7
330
3B6
100
AcDbEntity
  8
Sichtbare Kanten(TC_020513_DIN)
100
AcDbVertex
100
AcDb2dVertex
 10
133.6116260398392
 20
98.77544935676286
 30
0.0
  0
VERTEX
  5
3C8
330
3B6
100
AcDbEntity
  8
Sichtbare Kanten(TC_020513_DIN)
100
AcDbVertex
100
AcDb2dVertex
 10
133.7847203124527
 20
98.77435859176348
 30
0.0
  0
VERTEX
  5
3C9
330
3B6
100
AcDbEntity
  8
Sichtbare Kanten(TC_020513_DIN)
100
AcDbVertex
100
AcDb2dVertex
 10
133.940374266005
 20
98.77337988349626
 30
0.0
  0
VERTEX
  5
3CA
330
3B6
100
AcDbEntity
  8
Sichtbare Kanten(TC_020513_DIN)
100
AcDbVertex
100
AcDb2dVertex
 10
134.0766424048905
 20
98.77252396079729
 30
0.0
  0
VERTEX
  5
3CB
330
3B6
100
AcDbEntity
  8
Sichtbare Kanten(TC_020513_DIN)
100
AcDbVertex
100
AcDb2dVertex
 10
134.1919130195145
 20
98.77180274459551
 30
0.0
  0
VERTEX
  5
3CC
330
3B6
100
AcDbEntity
  8
Sichtbare Kanten(TC_020513_DIN)
100
AcDbVertex
100
AcDb2dVertex
 10
134.2859453071121
 20
98.77121385070513
 30
0.0
  0
VERTEX
  5
3CD
330
3B6
100
AcDbEntity
  8
Sichtbare Kanten(TC_020513_DIN)
100
AcDbVertex
100
AcDb2dVertex
 10
134.3588608611588
 20
98.77075847121904
 30
0.0
  0
VERTEX
  5
3CE
330
3B6
100
AcDbEntity
  8
Sichtbare Kanten(TC_020513_DIN)
100
AcDbVertex
100
AcDb2dVertex
 10
134.4107908118729
 20
98.77043422195146
 30
0.0
  0
VERTEX
  5
3CF
330
3B6
100
AcDbEntity
  8
Sichtbare Kanten(TC_020513_DIN)
100
AcDbVertex
100
AcDb2dVertex
 10
134.4418567527298
 20
98.77024110290239
 30
0.0
  0
VERTEX
  5
3D0
330
3B6
100
AcDbEntity
  8
Sichtbare Kanten(TC_020513_DIN)
100
AcDbVertex
100
AcDb2dVertex
 10
134.4521826613907
 20
98.77017672988603
 30
0.0
  0
SEQEND
  5
3B9
330
3B6
100
AcDbEntity
  8
Sichtbare Kanten(TC_020513_DIN)
  0
LINE
  5
3D1
330
37
100
AcDbEntity
  8
Sichtbare Kanten(TC_020513_DIN)
100
AcDbLine
 10
55.94214149386056
 20
114.2636328551454
 30
0.0
 11
55.70600330937923
 21
104.6014695660085
 31
0.0
  0
LINE
  5
3D2
330
37
100
AcDbEntity
  8
Sichtbare Kanten(TC_020513_DIN)
100
AcDbLine
 10
55.53837589862202
 20
97.74258980444521
 30
0.0
 11
55.25783623347326
 21
86.26363285514543
 31
0.0
  0
POLYLINE
  5
3D3
330
37
100
AcDbEntity
  8
Sichtbare Kanten(TC_020513_DIN)
100
AcDb2dPolyline
 66
     1
 10
0.0
 20
0.0
 30
0.0
 70
   128
  0
VERTEX
  5
3D4
330
3D3
100
AcDbEntity
  8
Sichtbare Kanten(TC_020513_DIN)
100
AcDbVertex
100
AcDb2dVertex
 10
134.4772976745133
 20
97.74259026977251
 30
0.0
  0
VERTEX
  5
3D5
330
3D3
100
AcDbEntity
  8
Sichtbare Kanten(TC_020513_DIN)
100
AcDbVertex
100
AcDb2dVertex
 10
134.4669026244645
 20
97.74255450698564
 30
0.0
  0
VERTEX
  5
3D7
330
3D3
100
AcDbEntity
  8
Sichtbare Kanten(TC_020513_DIN)
100
AcDbVertex
100
AcDb2dVertex
 10
134.4356411803727
 20
97.74244721862505
 30
0.0
  0
VERTEX
  5
3D8
330
3D3
100
AcDbEntity
  8
Sichtbare Kanten(TC_020513_DIN)
100
AcDbVertex
100
AcDb2dVertex
 10
134.3833893645767
 20
97.74226840469072
 30
0.0
  0
VERTEX
  5
3D9
330
3D3
100
AcDbEntity
  8
Sichtbare Kanten(TC_020513_DIN)
100
AcDbVertex
100
AcDb2dVertex
 10
134.3100279677872
 20
97.74201687308977
 30
0.0
  0
VERTEX
  5
3DA
330
3D3
100
AcDbEntity
  8
Sichtbare Kanten(TC_020513_DIN)
100
AcDbVertex
100
AcDb2dVertex
 10
134.2154330123429
 20
97.7416914317293
 30
0.0
  0
VERTEX
  5
3DB
330
3D3
100
AcDbEntity
  8
Sichtbare Kanten(TC_020513_DIN)
100
AcDbVertex
100
AcDb2dVertex
 10
134.0994852889542
 20
97.7412932727022
 30
0.0
  0
VERTEX
  5
3DC
330
3D3
100
AcDbEntity
  8
Sichtbare Kanten(TC_020513_DIN)
100
AcDbVertex
100
AcDb2dVertex
 10
133.9624160636429
 20
97.74082120391557
 30
0.0
  0
VERTEX
  5
3DD
330
3D3
100
AcDbEntity
  8
Sichtbare Kanten(TC_020513_DIN)
100
AcDbVertex
100
AcDb2dVertex
 10
133.8058441985611
 20
97.74028118583391
 30
0.0
  0
VERTEX
  5
3DE
330
3D3
100
AcDbEntity
  8
Sichtbare Kanten(TC_020513_DIN)
100
AcDbVertex
100
AcDb2dVertex
 10
133.6317175735001
 20
97.73967798682878
 30
0.0
  0
VERTEX
  5
3DF
330
3D3
100
AcDbEntity
  8
Sichtbare Kanten(TC_020513_DIN)
100
AcDbVertex
100
AcDb2dVertex
 10
133.4419816840653
 20
97.73902114364336
 30
0.0
  0
VERTEX
  5
3E0
330
3D3
100
AcDbEntity
  8
Sichtbare Kanten(TC_020513_DIN)
100
AcDbVertex
100
AcDb2dVertex
 10
133.2385915626053
 20
97.73831423255632
 30
0.0
  0
VERTEX
  5
3E1
330
3D3
100
AcDbEntity
  8
Sichtbare Kanten(TC_020513_DIN)
100
AcDbVertex
100
AcDb2dVertex
 10
133.0234879363541
 20
97.73756440612505
 30
0.0
  0
VERTEX
  5
3E2
330
3D3
100
AcDbEntity
  8
Sichtbare Kanten(TC_020513_DIN)
100
AcDbVertex
100
AcDb2dVertex
 10
132.793483148909
 20
97.73675974342058
 30
0.0
  0
VERTEX
  5
3E3
330
3D3
100
AcDbEntity
  8
Sichtbare Kanten(TC_020513_DIN)
100
AcDbVertex
100
AcDb2dVertex
 10
132.5456613410477
 20
97.73589070769975
 30
0.0
  0
VERTEX
  5
3E4
330
3D3
100
AcDbEntity
  8
Sichtbare Kanten(TC_020513_DIN)
100
AcDbVertex
100
AcDb2dVertex
 10
132.281791578627
 20
97.73496325942705
 30
0.0
  0
VERTEX
  5
3E5
330
3D3
100
AcDbEntity
  8
Sichtbare Kanten(TC_020513_DIN)
100
AcDbVertex
100
AcDb2dVertex
 10
132.003642927504
 20
97.73398097488115
 30
0.0
  0
VERTEX
  5
3E6
330
3D3
100
AcDbEntity
  8
Sichtbare Kanten(TC_020513_DIN)
100
AcDbVertex
100
AcDb2dVertex
 10
131.7129820693497
 20
97.73295100661943
 30
0.0
  0
VERTEX
  5
3E7
330
3D3
100
AcDbEntity
  8
Sichtbare Kanten(TC_020513_DIN)
100
AcDbVertex
100
AcDb2dVertex
 10
131.4115804542069
 20
97.73187931510637
 30
0.0
  0
VERTEX
  5
3E8
330
3D3
100
AcDbEntity
  8
Sichtbare Kanten(TC_020513_DIN)
100
AcDbVertex
100
AcDb2dVertex
 10
131.1013525832657
 20
97.73077186080644
 30
0.0
  0
VERTEX
  5
3E9
330
3D3
100
AcDbEntity
  8
Sichtbare Kanten(TC_020513_DIN)
100
AcDbVertex
100
AcDb2dVertex
 10
130.7847923148636
 20
97.72963698836992
 30
0.0
  0
VERTEX
  5
3EA
330
3D3
100
AcDbEntity
  8
Sichtbare Kanten(TC_020513_DIN)
100
AcDbVertex
100
AcDb2dVertex
 10
130.4645270217423
 20
97.72848423453996
 30
0.0
  0
VERTEX
  5
3EB
330
3D3
100
AcDbEntity
  8
Sichtbare Kanten(TC_020513_DIN)
100
AcDbVertex
100
AcDb2dVertex
 10
130.1431936133866
 20
97.72732313605974
 30
0.0
  0
VERTEX
  5
3EC
330
3D3
100
AcDbEntity
  8
Sichtbare Kanten(TC_020513_DIN)
100
AcDbVertex
100
AcDb2dVertex
 10
129.8234194625382
 20
97.72616442176531
 30
0.0
  0
VERTEX
  5
3ED
330
3D3
100
AcDbEntity
  8
Sichtbare Kanten(TC_020513_DIN)
100
AcDbVertex
100
AcDb2dVertex
 10
129.5078367103104
 20
97.72501524421404
 30
0.0
  0
SEQEND
  5
3D6
330
3D3
100
AcDbEntity
  8
Sichtbare Kanten(TC_020513_DIN)
  0
ELLIPSE
  5
3EE
330
37
100
AcDbEntity
  8
Sichtbare Kanten(TC_020513_DIN)
100
AcDbEllipse
 10
129.4056838071377
 20
100.6117090664987
 30
0.0
 11
-5.001866565402879
 21
0.0610394743223342
 31
0.0
210
0.0
220
0.0
230
1.0
 40
0.5770057848514301
 41
1.5919425968961
 42
1.598261382472639
  0
ELLIPSE
  5
3EF
330
37
100
AcDbEntity
  8
Sichtbare Kanten(TC_020513_DIN)
100
AcDbEllipse
 10
60.60998865980881
 20
100.6117090664987
 30
0.0
 11
-5.001866565402878
 21
-0.0610394743223347
 31
0.0
210
0.0
220
0.0
230
1.0
 40
0.5770057848514301
 41
1.54333127111715
 42
1.549650056693689
  0
POLYLINE
  5
3F0
330
37
100
AcDbEntity
  8
Sichtbare Kanten(TC_020513_DIN)
100
AcDb2dPolyline
 66
     1
 10
0.0
 20
0.0
 30
0.0
 70
   128
  0
VERTEX
  5
3F1
330
3F0
100
AcDbEntity
  8
Sichtbare Kanten(TC_020513_DIN)
100
AcDbVertex
100
AcDb2dVertex
 10
60.5078357566361
 20
97.72501524421404
 30
0.0
  0
VERTEX
  5
3F2
330
3F0
100
AcDbEntity
  8
Sichtbare Kanten(TC_020513_DIN)
100
AcDbVertex
100
AcDb2dVertex
 10
60.19225300440831
 20
97.72616442176531
 30
0.0
  0
VERTEX
  5
3F4
330
3F0
100
AcDbEntity
  8
Sichtbare Kanten(TC_020513_DIN)
100
AcDbVertex
100
AcDb2dVertex
 10
59.87247885355992
 20
97.72732313605974
 30
0.0
  0
VERTEX
  5
3F5
330
3F0
100
AcDbEntity
  8
Sichtbare Kanten(TC_020513_DIN)
100
AcDbVertex
100
AcDb2dVertex
 10
59.55114544520421
 20
97.72848423453996
 30
0.0
  0
VERTEX
  5
3F6
330
3F0
100
AcDbEntity
  8
Sichtbare Kanten(TC_020513_DIN)
100
AcDbVertex
100
AcDb2dVertex
 10
59.23088015208287
 20
97.72963698836992
 30
0.0
  0
VERTEX
  5
3F7
330
3F0
100
AcDbEntity
  8
Sichtbare Kanten(TC_020513_DIN)
100
AcDbVertex
100
AcDb2dVertex
 10
58.91431988368077
 20
97.73077186080644
 30
0.0
  0
VERTEX
  5
3F8
330
3F0
100
AcDbEntity
  8
Sichtbare Kanten(TC_020513_DIN)
100
AcDbVertex
100
AcDb2dVertex
 10
58.60409201273961
 20
97.73187931510637
 30
0.0
  0
VERTEX
  5
3F9
330
3F0
100
AcDbEntity
  8
Sichtbare Kanten(TC_020513_DIN)
100
AcDbVertex
100
AcDb2dVertex
 10
58.30269039759679
 20
97.73295100661943
 30
0.0
  0
VERTEX
  5
3FA
330
3F0
100
AcDbEntity
  8
Sichtbare Kanten(TC_020513_DIN)
100
AcDbVertex
100
AcDb2dVertex
 10
58.01202953944249
 20
97.73398097488115
 30
0.0
  0
VERTEX
  5
3FB
330
3F0
100
AcDbEntity
  8
Sichtbare Kanten(TC_020513_DIN)
100
AcDbVertex
100
AcDb2dVertex
 10
57.73388088831945
 20
97.73496325942705
 30
0.0
  0
VERTEX
  5
3FC
330
3F0
100
AcDbEntity
  8
Sichtbare Kanten(TC_020513_DIN)
100
AcDbVertex
100
AcDb2dVertex
 10
57.47001112589879
 20
97.73589070769975
 30
0.0
  0
VERTEX
  5
3FD
330
3F0
100
AcDbEntity
  8
Sichtbare Kanten(TC_020513_DIN)
100
AcDbVertex
100
AcDb2dVertex
 10
57.22218931803746
 20
97.73675974342058
 30
0.0
  0
VERTEX
  5
3FE
330
3F0
100
AcDbEntity
  8
Sichtbare Kanten(TC_020513_DIN)
100
AcDbVertex
100
AcDb2dVertex
 10
56.9921845305924
 20
97.73756440612505
 30
0.0
  0
VERTEX
  5
3FF
330
3F0
100
AcDbEntity
  8
Sichtbare Kanten(TC_020513_DIN)
100
AcDbVertex
100
AcDb2dVertex
 10
56.77708090434117
 20
97.73831423255632
 30
0.0
  0
VERTEX
  5
400
330
3F0
100
AcDbEntity
  8
Sichtbare Kanten(TC_020513_DIN)
100
AcDbVertex
100
AcDb2dVertex
 10
56.57369078288121
 20
97.73902114364336
 30
0.0
  0
VERTEX
  5
401
330
3F0
100
AcDbEntity
  8
Sichtbare Kanten(TC_020513_DIN)
100
AcDbVertex
100
AcDb2dVertex
 10
56.3839548934464
 20
97.73967798682878
 30
0.0
  0
VERTEX
  5
402
330
3F0
100
AcDbEntity
  8
Sichtbare Kanten(TC_020513_DIN)
100
AcDbVertex
100
AcDb2dVertex
 10
56.20982826838536
 20
97.74028118583391
 30
0.0
  0
VERTEX
  5
403
330
3F0
100
AcDbEntity
  8
Sichtbare Kanten(TC_020513_DIN)
100
AcDbVertex
100
AcDb2dVertex
 10
56.05325640330358
 20
97.74082120391557
 30
0.0
  0
VERTEX
  5
404
330
3F0
100
AcDbEntity
  8
Sichtbare Kanten(TC_020513_DIN)
100
AcDbVertex
100
AcDb2dVertex
 10
55.9161871779923
 20
97.7412932727022
 30
0.0
  0
VERTEX
  5
405
330
3F0
100
AcDbEntity
  8
Sichtbare Kanten(TC_020513_DIN)
100
AcDbVertex
100
AcDb2dVertex
 10
55.80023945460363
 20
97.7416914317293
 30
0.0
  0
VERTEX
  5
406
330
3F0
100
AcDbEntity
  8
Sichtbare Kanten(TC_020513_DIN)
100
AcDbVertex
100
AcDb2dVertex
 10
55.70564449915929
 20
97.74201687308977
 30
0.0
  0
VERTEX
  5
407
330
3F0
100
AcDbEntity
  8
Sichtbare Kanten(TC_020513_DIN)
100
AcDbVertex
100
AcDb2dVertex
 10
55.63228310236974
 20
97.74226840469072
 30
0.0
  0
VERTEX
  5
408
330
3F0
100
AcDbEntity
  8
Sichtbare Kanten(TC_020513_DIN)
100
AcDbVertex
100
AcDb2dVertex
 10
55.58003128657384
 20
97.74244721862505
 30
0.0
  0
VERTEX
  5
409
330
3F0
100
AcDbEntity
  8
Sichtbare Kanten(TC_020513_DIN)
100
AcDbVertex
100
AcDb2dVertex
 10
55.54876984248204
 20
97.74255450698564
 30
0.0
  0
VERTEX
  5
40A
330
3F0
100
AcDbEntity
  8
Sichtbare Kanten(TC_020513_DIN)
100
AcDbVertex
100
AcDb2dVertex
 10
55.53837479243322
 20
97.74259026977251
 30
0.0
  0
SEQEND
  5
3F3
330
3F0
100
AcDbEntity
  8
Sichtbare Kanten(TC_020513_DIN)
  0
LINE
  5
40B
330
37
100
AcDbEntity
  8
Sichtbare Kanten(TC_020513_DIN)
100
AcDbLine
 10
134.7578362334733
 20
86.26363285514543
 30
0.0
 11
129.7563432367044
 21
86.26363285514543
 31
0.0
  0
LINE
  5
40C
330
37
100
AcDbEntity
  8
Sichtbare Kanten(TC_020513_DIN)
100
AcDbLine
 10
55.94214149386058
 20
114.2636328551454
 30
0.0
 11
55.99283623347325
 21
114.2636328551454
 31
0.0
  0
LINE
  5
40D
330
37
100
AcDbEntity
  8
Sichtbare Kanten(TC_020513_DIN)
100
AcDbLine
 10
60.25932923024214
 20
86.26363285514543
 30
0.0
 11
55.25783623347326
 21
86.26363285514543
 31
0.0
  0
LINE
  5
40E
330
37
100
AcDbEntity
  8
Sichtbare Kanten(TC_020513_DIN)
100
AcDbLine
 10
134.4521828900086
 20
98.77017651690966
 30
0.0
 11
134.4772965683245
 21
97.74258980444523
 31
0.0
  0
LINE
  5
40F
330
37
100
AcDbEntity
  8
Sichtbare Kanten(TC_020513_DIN)
100
AcDbLine
 10
60.56576784998823
 20
98.80230798974025
 30
0.0
 11
129.4499046169583
 21
98.80230798974025
 31
0.0
  0
LINE
  5
410
330
37
100
AcDbEntity
  8
Sichtbare Kanten(TC_020513_DIN)
100
AcDbLine
 10
55.53837589862201
 20
97.74258980444521
 30
0.0
 11
55.56348957693785
 21
98.77017651690966
 31
0.0
  0
LINE
  5
411
330
37
100
AcDbEntity
  8
Sichtbare Kanten(TC_020513_DIN)
100
AcDbLine
 10
129.4762344904042
 20
97.72495772055064
 30
0.0
 11
60.5394379765423
 21
97.72495772055064
 31
0.0
  0
LINE
  5
412
330
37
100
AcDbEntity
  8
Sichtbare Kanten(TC_020513_DIN)
100
AcDbLine
 10
129.7563432367044
 20
86.26363285514543
 30
0.0
 11
60.25932923024214
 21
86.26363285514543
 31
0.0
  0
LINE
  5
413
330
37
100
AcDbEntity
  8
Sichtbare Kanten(TC_020513_DIN)
100
AcDbLine
 10
134.0078362334732
 20
98.01363285514543
 30
0.0
 11
134.4772965683245
 21
97.74258980444521
 31
0.0
  0
LINE
  5
414
330
37
100
AcDbEntity
  8
Sichtbare Kanten(TC_020513_DIN)
100
AcDbLine
 10
129.5078362334732
 20
98.01363285514543
 30
0.0
 11
134.0078362334732
 21
98.01363285514543
 31
0.0
  0
LINE
  5
415
330
37
100
AcDbEntity
  8
Sichtbare Kanten(TC_020513_DIN)
100
AcDbLine
 10
129.5078362334732
 20
98.01363285514543
 30
0.0
 11
60.50783623347325
 21
98.01363285514543
 31
0.0
  0
LINE
  5
416
330
37
100
AcDbEntity
  8
Sichtbare Kanten(TC_020513_DIN)
100
AcDbLine
 10
56.00783623347327
 20
98.01363285514543
 30
0.0
 11
60.50783623347327
 21
98.01363285514543
 31
0.0
  0
LINE
  5
417
330
37
100
AcDbEntity
  8
Sichtbare Kanten(TC_020513_DIN)
100
AcDbLine
 10
56.00783623347327
 20
98.01363285514543
 30
0.0
 11
55.53837589862202
 21
97.74258980444521
 31
0.0
  0
LINE
  5
418
330
37
100
AcDbEntity
  8
Sichtbare Kanten(TC_020513_DIN)
100
AcDbLine
 10
55.56348957693786
 20
98.77017651690966
 30
0.0
 11
56.00783623347327
 21
98.51363285514544
 31
0.0
  0
LINE
  5
419
330
37
100
AcDbEntity
  8
Sichtbare Kanten(TC_020513_DIN)
100
AcDbLine
 10
56.00783623347327
 20
98.51363285514544
 30
0.0
 11
56.00783623347327
 21
98.01363285514543
 31
0.0
  0
LINE
  5
41A
330
37
100
AcDbEntity
  8
Sichtbare Kanten(TC_020513_DIN)
100
AcDbLine
 10
56.00783623347327
 20
98.51363285514544
 30
0.0
 11
60.50783623347327
 21
98.51363285514544
 31
0.0
  0
LINE
  5
41B
330
37
100
AcDbEntity
  8
Sichtbare Kanten(TC_020513_DIN)
100
AcDbLine
 10
129.5078362334732
 20
98.51363285514544
 30
0.0
 11
60.50783623347325
 21
98.51363285514544
 31
0.0
  0
LINE
  5
41C
330
37
100
AcDbEntity
  8
Sichtbare Kanten(TC_020513_DIN)
100
AcDbLine
 10
129.5078362334732
 20
98.51363285514544
 30
0.0
 11
134.0078362334732
 21
98.51363285514544
 31
0.0
  0
LINE
  5
41D
330
37
100
AcDbEntity
  8
Sichtbare Kanten(TC_020513_DIN)
100
AcDbLine
 10
134.4521828900086
 20
98.77017651690966
 30
0.0
 11
134.0078362334732
 21
98.51363285514544
 31
0.0
  0
LINE
  5
41E
330
37
100
AcDbEntity
  8
Sichtbare Kanten(TC_020513_DIN)
100
AcDbLine
 10
134.0078362334732
 20
98.51363285514544
 30
0.0
 11
134.0078362334732
 21
98.01363285514543
 31
0.0
  0
LINE
  5
41F
330
37
100
AcDbEntity
  8
Sichtbare Kanten(TC_020513_DIN)
100
AcDbLine
 10
132.001148237803
 20
114.2636328551454
 30
0.0
 11
58.01452422914352
 21
114.2636328551454
 31
0.0
  0
LINE
  5
420
330
37
100
AcDbEntity
  8
Sichtbare Kanten(TC_020513_DIN)
100
AcDbLine
 10
134.7578362334732
 20
84.25363285514544
 30
0.0
 11
134.7578362334732
 21
86.25363285514543
 31
0.0
  0
LINE
  5
421
330
37
100
AcDbEntity
  8
Sichtbare Kanten(TC_020513_DIN)
100
AcDbLine
 10
129.7578362334732
 20
86.25363285514543
 30
0.0
 11
134.7578362334732
 21
86.25363285514543
 31
0.0
  0
LINE
  5
422
330
37
100
AcDbEntity
  8
Sichtbare Kanten(TC_020513_DIN)
100
AcDbLine
 10
129.7578362334732
 20
84.25363285514544
 30
0.0
 11
134.7578362334732
 21
84.25363285514544
 31
0.0
  0
LINE
  5
423
330
37
100
AcDbEntity
  8
Sichtbare Kanten(TC_020513_DIN)
100
AcDbLine
 10
129.7578362334732
 20
86.25363285514543
 30
0.0
 11
60.25783623347326
 21
86.25363285514543
 31
0.0
  0
LINE
  5
424
330
37
100
AcDbEntity
  8
Sichtbare Kanten(TC_020513_DIN)
100
AcDbLine
 10
129.7578362334732
 20
84.25363285514544
 30
0.0
 11
60.25783623347326
 21
84.25363285514544
 31
0.0
  0
LINE
  5
425
330
37
100
AcDbEntity
  8
Sichtbare Kanten(TC_020513_DIN)
100
AcDbLine
 10
55.25783623347326
 20
86.25363285514543
 30
0.0
 11
60.25783623347326
 21
86.25363285514543
 31
0.0
  0
LINE
  5
426
330
37
100
AcDbEntity
  8
Sichtbare Kanten(TC_020513_DIN)
100
AcDbLine
 10
55.25783623347326
 20
84.25363285514544
 30
0.0
 11
55.25783623347326
 21
86.25363285514543
 31
0.0
  0
LINE
  5
427
330
37
100
AcDbEntity
  8
Sichtbare Kanten(TC_020513_DIN)
100
AcDbLine
 10
55.25783623347326
 20
84.25363285514544
 30
0.0
 11
60.25783623347326
 21
84.25363285514544
 31
0.0
  0
LINE
  5
428
330
37
100
AcDbEntity
  8
Sichtbare Kanten(TC_020513_DIN)
100
AcDbLine
 10
230.0781115712775
 20
143.0122225773779
 30
0.0
 11
230.1781115712775
 21
143.0122225773779
 31
0.0
  0
LINE
  5
429
330
37
100
AcDbEntity
  8
Sichtbare Kanten(TC_020513_DIN)
100
AcDbLine
 10
230.0781115712775
 20
135.5150431329144
 30
0.0
 11
230.1781115712775
 21
135.5150431329144
 31
0.0
  0
LINE
  5
42A
330
37
100
AcDbEntity
  8
Sichtbare Kanten(TC_020513_DIN)
100
AcDbLine
 10
230.1781115712775
 20
135.5150431329144
 30
0.0
 11
230.1781115712756
 21
139.2636328551458
 31
0.0
  0
LINE
  5
42B
330
37
100
AcDbEntity
  8
Sichtbare Kanten(TC_020513_DIN)
100
AcDbLine
 10
230.0781115712756
 20
139.2636328551458
 30
0.0
 11
230.1781115712756
 21
139.2636328551458
 31
0.0
  0
LINE
  5
42C
330
37
100
AcDbEntity
  8
Sichtbare Kanten(TC_020513_DIN)
100
AcDbLine
 10
230.1781115712756
 20
139.2636328551458
 30
0.0
 11
230.1781115712775
 21
143.0122225773779
 31
0.0
  0
LINE
  5
42D
330
37
100
AcDbEntity
  8
Sichtbare Kanten(TC_020513_DIN)
100
AcDbLine
 10
230.0781115712716
 20
118.2636328551454
 30
0.0
 11
230.0781115712728
 21
146.2636328551454
 31
0.0
  0
LINE
  5
42E
330
37
100
AcDbEntity
  8
Sichtbare Kanten(TC_020513_DIN)
100
AcDbLine
 10
195.078111571272
 20
117.2636328551454
 30
0.0
 11
196.0781115712715
 21
118.2636328551454
 31
0.0
  0
LINE
  5
42F
330
37
100
AcDbEntity
  8
Sichtbare Kanten(TC_020513_DIN)
100
AcDbLine
 10
196.0781115712728
 20
146.2636328551454
 30
0.0
 11
195.0781115712733
 21
147.2636328551454
 31
0.0
  0
LINE
  5
430
330
37
100
AcDbEntity
  8
Sichtbare Kanten(TC_020513_DIN)
100
AcDbLine
 10
196.0781115712728
 20
146.2636328551454
 30
0.0
 11
196.0781115712715
 21
118.2636328551454
 31
0.0
  0
LINE
  5
431
330
37
100
AcDbEntity
  8
Sichtbare Kanten(TC_020513_DIN)
100
AcDbLine
 10
231.0781115712734
 20
147.2636328551454
 30
0.0
 11
230.0781115712728
 21
146.2636328551454
 31
0.0
  0
LINE
  5
432
330
37
100
AcDbEntity
  8
Sichtbare Kanten(TC_020513_DIN)
100
AcDbLine
 10
230.0781115712716
 20
118.2636328551454
 30
0.0
 11
231.0781115712721
 21
117.2636328551454
 31
0.0
  0
LINE
  5
433
330
37
100
AcDbEntity
  8
Sichtbare Kanten(TC_020513_DIN)
100
AcDbLine
 10
195.0781115712736
 20
152.7536328551454
 30
0.0
 11
195.0781115712733
 21
147.2636328551454
 31
0.0
  0
LINE
  5
434
330
37
100
AcDbEntity
  8
Sichtbare Kanten(TC_020513_DIN)
100
AcDbLine
 10
195.078111571272
 20
117.2636328551454
 30
0.0
 11
195.0781115712719
 21
114.2636328551454
 31
0.0
  0
LINE
  5
435
330
37
100
AcDbEntity
  8
Sichtbare Kanten(TC_020513_DIN)
100
AcDbLine
 10
231.0781115712719
 20
114.2636328551454
 30
0.0
 11
231.0781115712721
 21
117.2636328551454
 31
0.0
  0
LINE
  5
436
330
37
100
AcDbEntity
  8
Sichtbare Kanten(TC_020513_DIN)
100
AcDbLine
 10
231.0781115712734
 20
147.2636328551454
 30
0.0
 11
231.0781115712736
 21
152.7536328551454
 31
0.0
  0
ARC
  5
437
330
37
100
AcDbEntity
  8
Sichtbare Kanten(TC_020513_DIN)
100
AcDbCircle
 10
197.0781115712736
 20
152.7536328551454
 30
0.0
 40
2.00000000000001
100
AcDbArc
 50
90.0
 51
180.0
  0
ARC
  5
438
330
37
100
AcDbEntity
  8
Sichtbare Kanten(TC_020513_DIN)
100
AcDbCircle
 10
229.0781115712736
 20
152.7536328551454
 30
0.0
 40
2.000000000000006
100
AcDbArc
 50
0.0
 51
89.99999999999898
  0
LINE
  5
439
330
37
100
AcDbEntity
  8
Sichtbare Kanten(TC_020513_DIN)
100
AcDbLine
 10
231.0781115712719
 20
114.2636328551454
 30
0.0
 11
229.0781115712713
 21
114.2636328551454
 31
0.0
  0
LINE
  5
43A
330
37
100
AcDbEntity
  8
Sichtbare Kanten(TC_020513_DIN)
100
AcDbLine
 10
229.0781115712736
 20
154.7536328551454
 30
0.0
 11
197.0781115712736
 21
154.7536328551454
 31
0.0
  0
LINE
  5
43B
330
37
100
AcDbEntity
  8
Sichtbare Kanten(TC_020513_DIN)
100
AcDbLine
 10
197.0781115712713
 20
114.2636328551454
 30
0.0
 11
195.0781115712719
 21
114.2636328551454
 31
0.0
  0
CIRCLE
  5
43C
330
37
100
AcDbEntity
  8
Sichtbare Kanten(TC_020513_DIN)
100
AcDbCircle
 10
213.0781115712699
 20
91.76363285514543
 30
0.0
 40
1.5
  0
LINE
  5
43D
330
37
100
AcDbEntity
  8
Sichtbare Kanten(TC_020513_DIN)
100
AcDbLine
 10
227.5781115712727
 20
104.8005169284273
 30
0.0
 11
227.565787575724
 21
104.7934016662799
 31
0.0
  0
LINE
  5
43E
330
37
100
AcDbEntity
  8
Sichtbare Kanten(TC_020513_DIN)
100
AcDbLine
 10
227.565787575724
 20
104.7934016662798
 30
0.0
 11
227.0781115712726
 21
104.5118417938325
 31
0.0
  0
LINE
  5
43F
330
37
100
AcDbEntity
  8
Sichtbare Kanten(TC_020513_DIN)
100
AcDbLine
 10
222.5781115712712
 20
103.9124924605474
 30
0.0
 11
214.5781115712712
 21
103.9124924605474
 31
0.0
  0
LINE
  5
440
330
37
100
AcDbEntity
  8
Sichtbare Kanten(TC_020513_DIN)
100
AcDbLine
 10
222.5781115712713
 20
104.0118417938325
 30
0.0
 11
214.5781115712713
 21
104.0118417938325
 31
0.0
  0
LINE
  5
441
330
37
100
AcDbEntity
  8
Sichtbare Kanten(TC_020513_DIN)
100
AcDbLine
 10
214.5781115712712
 20
104.6014695660085
 30
0.0
 11
222.5781115712712
 21
104.6014695660085
 31
0.0
  0
LINE
  5
442
330
37
100
AcDbEntity
  8
Sichtbare Kanten(TC_020513_DIN)
100
AcDbLine
 10
222.5781115712713
 20
104.5118417938325
 30
0.0
 11
214.5781115712713
 21
104.5118417938325
 31
0.0
  0
LINE
  5
443
330
37
100
AcDbEntity
  8
Sichtbare Kanten(TC_020513_DIN)
100
AcDbLine
 10
222.5781115712713
 20
104.0118417938325
 30
0.0
 11
227.0781115712726
 21
104.0118417938325
 31
0.0
  0
LINE
  5
444
330
37
100
AcDbEntity
  8
Sichtbare Kanten(TC_020513_DIN)
100
AcDbLine
 10
227.0781115712726
 20
104.5118417938325
 30
0.0
 11
227.0781115712726
 21
104.0118417938325
 31
0.0
  0
LINE
  5
445
330
37
100
AcDbEntity
  8
Sichtbare Kanten(TC_020513_DIN)
100
AcDbLine
 10
222.5781115712713
 20
104.5118417938325
 30
0.0
 11
227.0781115712726
 21
104.5118417938325
 31
0.0
  0
POLYLINE
  5
446
330
37
100
AcDbEntity
  8
Sichtbare Kanten(TC_020513_DIN)
100
AcDb2dPolyline
 66
     1
 10
0.0
 20
0.0
 30
0.0
 70
   128
  0
VERTEX
  5
447
330
446
100
AcDbEntity
  8
Sichtbare Kanten(TC_020513_DIN)
100
AcDbVertex
100
AcDb2dVertex
 10
227.5675477208698
 20
103.7292652938051
 30
0.0
  0
VERTEX
  5
448
330
446
100
AcDbEntity
  8
Sichtbare Kanten(TC_020513_DIN)
100
AcDbVertex
100
AcDb2dVertex
 10
227.5382675351702
 20
103.7406497809572
 30
0.0
  0
VERTEX
  5
44A
330
446
100
AcDbEntity
  8
Sichtbare Kanten(TC_020513_DIN)
100
AcDbVertex
100
AcDb2dVertex
 10
227.4894692124926
 20
103.7522095057649
 30
0.0
  0
VERTEX
  5
44B
330
446
100
AcDbEntity
  8
Sichtbare Kanten(TC_020513_DIN)
100
AcDbVertex
100
AcDb2dVertex
 10
227.4211837472519
 20
103.7638514849824
 30
0.0
  0
VERTEX
  5
44C
330
446
100
AcDbEntity
  8
Sichtbare Kanten(TC_020513_DIN)
100
AcDbVertex
100
AcDb2dVertex
 10
227.3334385575851
 20
103.7754839274568
 30
0.0
  0
VERTEX
  5
44D
330
446
100
AcDbEntity
  8
Sichtbare Kanten(TC_020513_DIN)
100
AcDbVertex
100
AcDb2dVertex
 10
227.2262646379073
 20
103.7870138499422
 30
0.0
  0
VERTEX
  5
44E
330
446
100
AcDbEntity
  8
Sichtbare Kanten(TC_020513_DIN)
100
AcDbVertex
100
AcDb2dVertex
 10
227.0996894063551
 20
103.7983494612855
 30
0.0
  0
VERTEX
  5
44F
330
446
100
AcDbEntity
  8
Sichtbare Kanten(TC_020513_DIN)
100
AcDbVertex
100
AcDb2dVertex
 10
226.9539560498791
 20
103.809398970334
 30
0.0
  0
VERTEX
  5
450
330
446
100
AcDbEntity
  8
Sichtbare Kanten(TC_020513_DIN)
100
AcDbVertex
100
AcDb2dVertex
 10
226.7905093850689
 20
103.820088467328
 30
0.0
  0
VERTEX
  5
451
330
446
100
AcDbEntity
  8
Sichtbare Kanten(TC_020513_DIN)
100
AcDbVertex
100
AcDb2dVertex
 10
226.6112186135845
 20
103.8303500029726
 30
0.0
  0
VERTEX
  5
452
330
446
100
AcDbEntity
  8
Sichtbare Kanten(TC_020513_DIN)
100
AcDbVertex
100
AcDb2dVertex
 10
226.4179517449931
 20
103.8401168200655
 30
0.0
  0
VERTEX
  5
453
330
446
100
AcDbEntity
  8
Sichtbare Kanten(TC_020513_DIN)
100
AcDbVertex
100
AcDb2dVertex
 10
226.212576788862
 20
103.8493197772188
 30
0.0
  0
VERTEX
  5
454
330
446
100
AcDbEntity
  8
Sichtbare Kanten(TC_020513_DIN)
100
AcDbVertex
100
AcDb2dVertex
 10
225.9969641389444
 20
103.8578945014162
 30
0.0
  0
VERTEX
  5
455
330
446
100
AcDbEntity
  8
Sichtbare Kanten(TC_020513_DIN)
100
AcDbVertex
100
AcDb2dVertex
 10
225.7699145497872
 20
103.8658815238161
 30
0.0
  0
VERTEX
  5
456
330
446
100
AcDbEntity
  8
Sichtbare Kanten(TC_020513_DIN)
100
AcDbVertex
100
AcDb2dVertex
 10
225.5262579145027
 20
103.8734596583528
 30
0.0
  0
VERTEX
  5
457
330
446
100
AcDbEntity
  8
Sichtbare Kanten(TC_020513_DIN)
100
AcDbVertex
100
AcDb2dVertex
 10
225.2674974622321
 20
103.8805573794526
 30
0.0
  0
VERTEX
  5
458
330
446
100
AcDbEntity
  8
Sichtbare Kanten(TC_020513_DIN)
100
AcDbVertex
100
AcDb2dVertex
 10
224.9954082192969
 20
103.8870960089845
 30
0.0
  0
VERTEX
  5
459
330
446
100
AcDbEntity
  8
Sichtbare Kanten(TC_020513_DIN)
100
AcDbVertex
100
AcDb2dVertex
 10
224.7117616357397
 20
103.8929956767244
 30
0.0
  0
VERTEX
  5
45A
330
446
100
AcDbEntity
  8
Sichtbare Kanten(TC_020513_DIN)
100
AcDbVertex
100
AcDb2dVertex
 10
224.4183315457892
 20
103.8981777045412
 30
0.0
  0
VERTEX
  5
45B
330
446
100
AcDbEntity
  8
Sichtbare Kanten(TC_020513_DIN)
100
AcDbVertex
100
AcDb2dVertex
 10
224.1169847669195
 20
103.9025681826753
 30
0.0
  0
VERTEX
  5
45C
330
446
100
AcDbEntity
  8
Sichtbare Kanten(TC_020513_DIN)
100
AcDbVertex
100
AcDb2dVertex
 10
223.8100911798071
 20
103.9061516139192
 30
0.0
  0
VERTEX
  5
45D
330
446
100
AcDbEntity
  8
Sichtbare Kanten(TC_020513_DIN)
100
AcDbVertex
100
AcDb2dVertex
 10
223.5002042474339
 20
103.9089327666444
 30
0.0
  0
VERTEX
  5
45E
330
446
100
AcDbEntity
  8
Sichtbare Kanten(TC_020513_DIN)
100
AcDbVertex
100
AcDb2dVertex
 10
223.1898774327825
 20
103.9109128329439
 30
0.0
  0
VERTEX
  5
45F
330
446
100
AcDbEntity
  8
Sichtbare Kanten(TC_020513_DIN)
100
AcDbVertex
100
AcDb2dVertex
 10
222.8816618146489
 20
103.912097773282
 30
0.0
  0
VERTEX
  5
460
330
446
100
AcDbEntity
  8
Sichtbare Kanten(TC_020513_DIN)
100
AcDbVertex
100
AcDb2dVertex
 10
222.5781114520619
 20
103.9124923560304
 30
0.0
  0
SEQEND
  5
449
330
446
100
AcDbEntity
  8
Sichtbare Kanten(TC_020513_DIN)
  0
LINE
  5
461
330
37
100
AcDbEntity
  8
Sichtbare Kanten(TC_020513_DIN)
100
AcDbLine
 10
227.0781115712726
 20
104.0118417938325
 30
0.0
 11
227.5675483148334
 21
103.7292653581864
 31
0.0
  0
POLYLINE
  5
462
330
37
100
AcDbEntity
  8
Sichtbare Kanten(TC_020513_DIN)
100
AcDb2dPolyline
 66
     1
 10
0.0
 20
0.0
 30
0.0
 70
   128
  0
VERTEX
  5
463
330
462
100
AcDbEntity
  8
Sichtbare Kanten(TC_020513_DIN)
100
AcDbVertex
100
AcDb2dVertex
 10
222.5781114520619
 20
104.6014695975465
 30
0.0
  0
VERTEX
  5
464
330
462
100
AcDbEntity
  8
Sichtbare Kanten(TC_020513_DIN)
100
AcDbVertex
100
AcDb2dVertex
 10
222.8913213433812
 20
104.6018820616884
 30
0.0
  0
VERTEX
  5
466
330
462
100
AcDbEntity
  8
Sichtbare Kanten(TC_020513_DIN)
100
AcDbVertex
100
AcDb2dVertex
 10
223.2026495160649
 20
104.6031146857423
 30
0.0
  0
VERTEX
  5
467
330
462
100
AcDbEntity
  8
Sichtbare Kanten(TC_020513_DIN)
100
AcDbVertex
100
AcDb2dVertex
 10
223.5111929597448
 20
104.6051579329652
 30
0.0
  0
VERTEX
  5
468
330
462
100
AcDbEntity
  8
Sichtbare Kanten(TC_020513_DIN)
100
AcDbVertex
100
AcDb2dVertex
 10
223.8160504521917
 20
104.6080046507997
 30
0.0
  0
VERTEX
  5
469
330
462
100
AcDbEntity
  8
Sichtbare Kanten(TC_020513_DIN)
100
AcDbVertex
100
AcDb2dVertex
 10
224.1163195790838
 20
104.6116429183168
 30
0.0
  0
VERTEX
  5
46A
330
462
100
AcDbEntity
  8
Sichtbare Kanten(TC_020513_DIN)
100
AcDbVertex
100
AcDb2dVertex
 10
224.4110967340063
 20
104.6160679671449
 30
0.0
  0
VERTEX
  5
46B
330
462
100
AcDbEntity
  8
Sichtbare Kanten(TC_020513_DIN)
100
AcDbVertex
100
AcDb2dVertex
 10
224.6989323319983
 20
104.6212583396119
 30
0.0
  0
VERTEX
  5
46C
330
462
100
AcDbEntity
  8
Sichtbare Kanten(TC_020513_DIN)
100
AcDbVertex
100
AcDb2dVertex
 10
224.9778200807166
 20
104.6271711203737
 30
0.0
  0
VERTEX
  5
46D
330
462
100
AcDbEntity
  8
Sichtbare Kanten(TC_020513_DIN)
100
AcDbVertex
100
AcDb2dVertex
 10
225.2469541253638
 20
104.6337872359437
 30
0.0
  0
VERTEX
  5
46E
330
462
100
AcDbEntity
  8
Sichtbare Kanten(TC_020513_DIN)
100
AcDbVertex
100
AcDb2dVertex
 10
225.5055739106727
 20
104.6410780760927
 30
0.0
  0
VERTEX
  5
46F
330
462
100
AcDbEntity
  8
Sichtbare Kanten(TC_020513_DIN)
100
AcDbVertex
100
AcDb2dVertex
 10
225.7529141130043
 20
104.6490221831483
 30
0.0
  0
VERTEX
  5
470
330
462
100
AcDbEntity
  8
Sichtbare Kanten(TC_020513_DIN)
100
AcDbVertex
100
AcDb2dVertex
 10
225.9882129849984
 20
104.657593331067
 30
0.0
  0
VERTEX
  5
471
330
462
100
AcDbEntity
  8
Sichtbare Kanten(TC_020513_DIN)
100
AcDbVertex
100
AcDb2dVertex
 10
226.2105025472238
 20
104.6667605254335
 30
0.0
  0
VERTEX
  5
472
330
462
100
AcDbEntity
  8
Sichtbare Kanten(TC_020513_DIN)
100
AcDbVertex
100
AcDb2dVertex
 10
226.4181663217143
 20
104.6764546248598
 30
0.0
  0
VERTEX
  5
473
330
462
100
AcDbEntity
  8
Sichtbare Kanten(TC_020513_DIN)
100
AcDbVertex
100
AcDb2dVertex
 10
226.6105570020275
 20
104.6866350981874
 30
0.0
  0
VERTEX
  5
474
330
462
100
AcDbEntity
  8
Sichtbare Kanten(TC_020513_DIN)
100
AcDbVertex
100
AcDb2dVertex
 10
226.7871512593822
 20
104.6972685668153
 30
0.0
  0
VERTEX
  5
475
330
462
100
AcDbEntity
  8
Sichtbare Kanten(TC_020513_DIN)
100
AcDbVertex
100
AcDb2dVertex
 10
226.9474269570904
 20
104.7083216521425
 30
0.0
  0
VERTEX
  5
476
330
462
100
AcDbEntity
  8
Sichtbare Kanten(TC_020513_DIN)
100
AcDbVertex
100
AcDb2dVertex
 10
227.0908631505567
 20
104.7197633597536
 30
0.0
  0
VERTEX
  5
477
330
462
100
AcDbEntity
  8
Sichtbare Kanten(TC_020513_DIN)
100
AcDbVertex
100
AcDb2dVertex
 10
227.2167207421858
 20
104.7315340850038
 30
0.0
  0
VERTEX
  5
478
330
462
100
AcDbEntity
  8
Sichtbare Kanten(TC_020513_DIN)
100
AcDbVertex
100
AcDb2dVertex
 10
227.3242057981094
 20
104.7435575339479
 30
0.0
  0
VERTEX
  5
479
330
462
100
AcDbEntity
  8
Sichtbare Kanten(TC_020513_DIN)
100
AcDbVertex
100
AcDb2dVertex
 10
227.4130787076554
 20
104.7557907912416
 30
0.0
  0
VERTEX
  5
47A
330
462
100
AcDbEntity
  8
Sichtbare Kanten(TC_020513_DIN)
100
AcDbVertex
100
AcDb2dVertex
 10
227.4831165494524
 20
104.7682028624696
 30
0.0
  0
VERTEX
  5
47B
330
462
100
AcDbEntity
  8
Sichtbare Kanten(TC_020513_DIN)
100
AcDbVertex
100
AcDb2dVertex
 10
227.534094017943
 20
104.7807508322877
 30
0.0
  0
VERTEX
  5
47C
330
462
100
AcDbEntity
  8
Sichtbare Kanten(TC_020513_DIN)
100
AcDbVertex
100
AcDb2dVertex
 10
227.5657869996631
 20
104.7934013220949
 30
0.0
  0
SEQEND
  5
465
330
462
100
AcDbEntity
  8
Sichtbare Kanten(TC_020513_DIN)
  0
LINE
  5
47D
330
37
100
AcDbEntity
  8
Sichtbare Kanten(TC_020513_DIN)
100
AcDbLine
 10
227.5675483148334
 20
103.7292653581864
 30
0.0
 11
227.5781115712727
 21
103.7231666592377
 31
0.0
  0
LINE
  5
47E
330
37
100
AcDbEntity
  8
Sichtbare Kanten(TC_020513_DIN)
100
AcDbLine
 10
214.5781115712712
 20
103.9124924605474
 30
0.0
 11
214.5781115712712
 21
104.6014695660085
 31
0.0
  0
POLYLINE
  5
47F
330
37
100
AcDbEntity
  8
Sichtbare Kanten(TC_020513_DIN)
100
AcDb2dPolyline
 66
     1
 10
0.0
 20
0.0
 30
0.0
 70
   128
  0
VERTEX
  5
480
330
47F
100
AcDbEntity
  8
Sichtbare Kanten(TC_020513_DIN)
100
AcDbVertex
100
AcDb2dVertex
 10
222.5781114520619
 20
102.6577049109621
 30
0.0
  0
VERTEX
  5
481
330
47F
100
AcDbEntity
  8
Sichtbare Kanten(TC_020513_DIN)
100
AcDbVertex
100
AcDb2dVertex
 10
222.8848077478001
 20
102.6579957816286
 30
0.0
  0
VERTEX
  5
483
330
47F
100
AcDbEntity
  8
Sichtbare Kanten(TC_020513_DIN)
100
AcDbVertex
100
AcDb2dVertex
 10
223.1960834683965
 20
102.658869585721
 30
0.0
  0
VERTEX
  5
484
330
47F
100
AcDbEntity
  8
Sichtbare Kanten(TC_020513_DIN)
100
AcDbVertex
100
AcDb2dVertex
 10
223.5093607129643
 20
102.6603310916109
 30
0.0
  0
VERTEX
  5
485
330
47F
100
AcDbEntity
  8
Sichtbare Kanten(TC_020513_DIN)
100
AcDbVertex
100
AcDb2dVertex
 10
223.8220645608495
 20
102.6623850676698
 30
0.0
  0
VERTEX
  5
486
330
47F
100
AcDbEntity
  8
Sichtbare Kanten(TC_020513_DIN)
100
AcDbVertex
100
AcDb2dVertex
 10
224.1316177072118
 20
102.6650362822694
 30
0.0
  0
VERTEX
  5
487
330
47F
100
AcDbEntity
  8
Sichtbare Kanten(TC_020513_DIN)
100
AcDbVertex
100
AcDb2dVertex
 10
224.435445231397
 20
102.6682871195955
 30
0.0
  0
VERTEX
  5
488
330
47F
100
AcDbEntity
  8
Sichtbare Kanten(TC_020513_DIN)
100
AcDbVertex
100
AcDb2dVertex
 10
224.7311391057562
 20
102.6721316191835
 30
0.0
  0
VERTEX
  5
489
330
47F
100
AcDbEntity
  8
Sichtbare Kanten(TC_020513_DIN)
100
AcDbVertex
100
AcDb2dVertex
 10
225.0168241681647
 20
102.676518521039
 30
0.0
  0
VERTEX
  5
48A
330
47F
100
AcDbEntity
  8
Sichtbare Kanten(TC_020513_DIN)
100
AcDbVertex
100
AcDb2dVertex
 10
225.2907230081153
 20
102.6813929888887
 30
0.0
  0
VERTEX
  5
48B
330
47F
100
AcDbEntity
  8
Sichtbare Kanten(TC_020513_DIN)
100
AcDbVertex
100
AcDb2dVertex
 10
225.5510594071937
 20
102.6867001864595
 30
0.0
  0
VERTEX
  5
48C
330
47F
100
AcDbEntity
  8
Sichtbare Kanten(TC_020513_DIN)
100
AcDbVertex
100
AcDb2dVertex
 10
225.7960559548928
 20
102.6923828932924
 30
0.0
  0
VERTEX
  5
48D
330
47F
100
AcDbEntity
  8
Sichtbare Kanten(TC_020513_DIN)
100
AcDbVertex
100
AcDb2dVertex
 10
226.0240925969674
 20
102.6983910414857
 30
0.0
  0
VERTEX
  5
48E
330
47F
100
AcDbEntity
  8
Sichtbare Kanten(TC_020513_DIN)
100
AcDbVertex
100
AcDb2dVertex
 10
226.2399353208139
 20
102.7048498007936
 30
0.0
  0
VERTEX
  5
48F
330
47F
100
AcDbEntity
  8
Sichtbare Kanten(TC_020513_DIN)
100
AcDbVertex
100
AcDb2dVertex
 10
226.4451910676554
 20
102.7118080470247
 30
0.0
  0
VERTEX
  5
490
330
47F
100
AcDbEntity
  8
Sichtbare Kanten(TC_020513_DIN)
100
AcDbVertex
100
AcDb2dVertex
 10
226.6379727544383
 20
102.7192157122774
 30
0.0
  0
VERTEX
  5
491
330
47F
100
AcDbEntity
  8
Sichtbare Kanten(TC_020513_DIN)
100
AcDbVertex
100
AcDb2dVertex
 10
226.8163968743877
 20
102.7270286891145
 30
0.0
  0
VERTEX
  5
492
330
47F
100
AcDbEntity
  8
Sichtbare Kanten(TC_020513_DIN)
100
AcDbVertex
100
AcDb2dVertex
 10
226.9785763444501
 20
102.7351957175417
 30
0.0
  0
VERTEX
  5
493
330
47F
100
AcDbEntity
  8
Sichtbare Kanten(TC_020513_DIN)
100
AcDbVertex
100
AcDb2dVertex
 10
227.1226276578504
 20
102.7436726901216
 30
0.0
  0
VERTEX
  5
494
330
47F
100
AcDbEntity
  8
Sichtbare Kanten(TC_020513_DIN)
100
AcDbVertex
100
AcDb2dVertex
 10
227.2470690431197
 20
102.7524047705812
 30
0.0
  0
VERTEX
  5
495
330
47F
100
AcDbEntity
  8
Sichtbare Kanten(TC_020513_DIN)
100
AcDbVertex
100
AcDb2dVertex
 10
227.3516656579574
 20
102.7613228175325
 30
0.0
  0
VERTEX
  5
496
330
47F
100
AcDbEntity
  8
Sichtbare Kanten(TC_020513_DIN)
100
AcDbVertex
100
AcDb2dVertex
 10
227.4364222707352
 20
102.7703553054017
 30
0.0
  0
VERTEX
  5
497
330
47F
100
AcDbEntity
  8
Sichtbare Kanten(TC_020513_DIN)
100
AcDbVertex
100
AcDb2dVertex
 10
227.5013424577318
 20
102.7794283244295
 30
0.0
  0
VERTEX
  5
498
330
47F
100
AcDbEntity
  8
Sichtbare Kanten(TC_020513_DIN)
100
AcDbVertex
100
AcDb2dVertex
 10
227.5464321794116
 20
102.7884703490419
 30
0.0
  0
VERTEX
  5
499
330
47F
100
AcDbEntity
  8
Sichtbare Kanten(TC_020513_DIN)
100
AcDbVertex
100
AcDb2dVertex
 10
227.5716950120532
 20
102.7974098536653
 30
0.0
  0
SEQEND
  5
482
330
47F
100
AcDbEntity
  8
Sichtbare Kanten(TC_020513_DIN)
  0
LINE
  5
49A
330
37
100
AcDbEntity
  8
Sichtbare Kanten(TC_020513_DIN)
100
AcDbLine
 10
227.5781115712727
 20
102.8011139488649
 30
0.0
 11
227.5716952709432
 21
102.7974094961425
 31
0.0
  0
LINE
  5
49B
330
37
100
AcDbEntity
  8
Sichtbare Kanten(TC_020513_DIN)
100
AcDbLine
 10
227.5716952709432
 20
102.7974094961425
 30
0.0
 11
227.0781115712726
 21
102.5124388142701
 31
0.0
  0
LINE
  5
49C
330
37
100
AcDbEntity
  8
Sichtbare Kanten(TC_020513_DIN)
100
AcDbLine
 10
222.5781115712712
 20
101.8558582418467
 30
0.0
 11
214.5781115712712
 21
101.8558582418467
 31
0.0
  0
LINE
  5
49D
330
37
100
AcDbEntity
  8
Sichtbare Kanten(TC_020513_DIN)
100
AcDbLine
 10
222.5781115712713
 20
102.0124388142702
 30
0.0
 11
214.5781115712713
 21
102.0124388142702
 31
0.0
  0
LINE
  5
49E
330
37
100
AcDbEntity
  8
Sichtbare Kanten(TC_020513_DIN)
100
AcDbLine
 10
214.5781115712712
 20
102.6577052163089
 30
0.0
 11
222.5781115712712
 21
102.6577052163089
 31
0.0
  0
LINE
  5
49F
330
37
100
AcDbEntity
  8
Sichtbare Kanten(TC_020513_DIN)
100
AcDbLine
 10
222.5781115712713
 20
102.5124388142701
 30
0.0
 11
214.5781115712713
 21
102.5124388142701
 31
0.0
  0
LINE
  5
4A0
330
37
100
AcDbEntity
  8
Sichtbare Kanten(TC_020513_DIN)
100
AcDbLine
 10
222.5781115712713
 20
102.0124388142702
 30
0.0
 11
227.0781115712726
 21
102.0124388142702
 31
0.0
  0
LINE
  5
4A1
330
37
100
AcDbEntity
  8
Sichtbare Kanten(TC_020513_DIN)
100
AcDbLine
 10
227.0781115712726
 20
102.5124388142701
 30
0.0
 11
227.0781115712726
 21
102.0124388142702
 31
0.0
  0
LINE
  5
4A2
330
37
100
AcDbEntity
  8
Sichtbare Kanten(TC_020513_DIN)
100
AcDbLine
 10
222.5781115712713
 20
102.5124388142701
 30
0.0
 11
227.0781115712726
 21
102.5124388142701
 31
0.0
  0
POLYLINE
  5
4A3
330
37
100
AcDbEntity
  8
Sichtbare Kanten(TC_020513_DIN)
100
AcDb2dPolyline
 66
     1
 10
0.0
 20
0.0
 30
0.0
 70
   128
  0
VERTEX
  5
4A4
330
4A3
100
AcDbEntity
  8
Sichtbare Kanten(TC_020513_DIN)
100
AcDbVertex
100
AcDb2dVertex
 10
227.572952670058
 20
101.726742348401
 30
0.0
  0
VERTEX
  5
4A5
330
4A3
100
AcDbEntity
  8
Sichtbare Kanten(TC_020513_DIN)
100
AcDbVertex
100
AcDb2dVertex
 10
227.5483943643175
 20
101.7350846144838
 30
0.0
  0
VERTEX
  5
4A7
330
4A3
100
AcDbEntity
  8
Sichtbare Kanten(TC_020513_DIN)
100
AcDbVertex
100
AcDb2dVertex
 10
227.5038124742113
 20
101.7433863494081
 30
0.0
  0
VERTEX
  5
4A8
330
4A3
100
AcDbEntity
  8
Sichtbare Kanten(TC_020513_DIN)
100
AcDbVertex
100
AcDb2dVertex
 10
227.4394311132035
 20
101.7516189429445
 30
0.0
  0
VERTEX
  5
4A9
330
4A3
100
AcDbEntity
  8
Sichtbare Kanten(TC_020513_DIN)
100
AcDbVertex
100
AcDb2dVertex
 10
227.3554720105728
 20
101.759758553235
 30
0.0
  0
VERTEX
  5
4AA
330
4A3
100
AcDbEntity
  8
Sichtbare Kanten(TC_020513_DIN)
100
AcDbVertex
100
AcDb2dVertex
 10
227.2521592797835
 20
101.7677777621431
 30
0.0
  0
VERTEX
  5
4AB
330
4A3
100
AcDbEntity
  8
Sichtbare Kanten(TC_020513_DIN)
100
AcDbVertex
100
AcDb2dVertex
 10
227.1297170343
 20
101.7756515357179
 30
0.0
  0
VERTEX
  5
4AC
330
4A3
100
AcDbEntity
  8
Sichtbare Kanten(TC_020513_DIN)
100
AcDbVertex
100
AcDb2dVertex
 10
226.9888319196301
 20
101.783328613965
 30
0.0
  0
VERTEX
  5
4AD
330
4A3
100
AcDbEntity
  8
Sichtbare Kanten(TC_020513_DIN)
100
AcDbVertex
100
AcDb2dVertex
 10
226.8304182710247
 20
101.7907613131685
 30
0.0
  0
VERTEX
  5
4AE
330
4A3
100
AcDbEntity
  8
Sichtbare Kanten(TC_020513_DIN)
100
AcDbVertex
100
AcDb2dVertex
 10
226.6550387563305
 20
101.7979245993776
 30
0.0
  0
VERTEX
  5
4AF
330
4A3
100
AcDbEntity
  8
Sichtbare Kanten(TC_020513_DIN)
100
AcDbVertex
100
AcDb2dVertex
 10
226.4632548513011
 20
101.8047934386415
 30
0.0
  0
VERTEX
  5
4B0
330
4A3
100
AcDbEntity
  8
Sichtbare Kanten(TC_020513_DIN)
100
AcDbVertex
100
AcDb2dVertex
 10
226.2556256475046
 20
101.8113463732881
 30
0.0
  0
VERTEX
  5
4B1
330
4A3
100
AcDbEntity
  8
Sichtbare Kanten(TC_020513_DIN)
100
AcDbVertex
100
AcDb2dVertex
 10
226.0327126206949
 20
101.8175559851808
 30
0.0
  0
VERTEX
  5
4B2
330
4A3
100
AcDbEntity
  8
Sichtbare Kanten(TC_020513_DIN)
100
AcDbVertex
100
AcDb2dVertex
 10
225.7956923665596
 20
101.8233853194398
 30
0.0
  0
VERTEX
  5
4B3
330
4A3
100
AcDbEntity
  8
Sichtbare Kanten(TC_020513_DIN)
100
AcDbVertex
100
AcDb2dVertex
 10
225.5461742105079
 20
101.8287926528139
 30
0.0
  0
VERTEX
  5
4B4
330
4A3
100
AcDbEntity
  8
Sichtbare Kanten(TC_020513_DIN)
100
AcDbVertex
100
AcDb2dVertex
 10
225.2849842729164
 20
101.8337601039094
 30
0.0
  0
VERTEX
  5
4B5
330
4A3
100
AcDbEntity
  8
Sichtbare Kanten(TC_020513_DIN)
100
AcDbVertex
100
AcDb2dVertex
 10
225.0129367532324
 20
101.8382709834261
 30
0.0
  0
VERTEX
  5
4B6
330
4A3
100
AcDbEntity
  8
Sichtbare Kanten(TC_020513_DIN)
100
AcDbVertex
100
AcDb2dVertex
 10
224.7308494271826
 20
101.8423074099702
 30
0.0
  0
VERTEX
  5
4B7
330
4A3
100
AcDbEntity
  8
Sichtbare Kanten(TC_020513_DIN)
100
AcDbVertex
100
AcDb2dVertex
 10
224.4395388784002
 20
101.8458526942415
 30
0.0
  0
VERTEX
  5
4B8
330
4A3
100
AcDbEntity
  8
Sichtbare Kanten(TC_020513_DIN)
100
AcDbVertex
100
AcDb2dVertex
 10
224.1403831662725
 20
101.8488841864747
 30
0.0
  0
VERTEX
  5
4B9
330
4A3
100
AcDbEntity
  8
Sichtbare Kanten(TC_020513_DIN)
100
AcDbVertex
100
AcDb2dVertex
 10
223.8355018319677
 20
101.8513780448122
 30
0.0
  0
VERTEX
  5
4BA
330
4A3
100
AcDbEntity
  8
Sichtbare Kanten(TC_020513_DIN)
100
AcDbVertex
100
AcDb2dVertex
 10
223.525884312589
 20
101.8533283087892
 30
0.0
  0
VERTEX
  5
4BB
330
4A3
100
AcDbEntity
  8
Sichtbare Kanten(TC_020513_DIN)
100
AcDbVertex
100
AcDb2dVertex
 10
223.2124807061742
 20
101.8547302100343
 30
0.0
  0
VERTEX
  5
4BC
330
4A3
100
AcDbEntity
  8
Sichtbare Kanten(TC_020513_DIN)
100
AcDbVertex
100
AcDb2dVertex
 10
222.8962399186681
 20
101.8555754038972
 30
0.0
  0
VERTEX
  5
4BD
330
4A3
100
AcDbEntity
  8
Sichtbare Kanten(TC_020513_DIN)
100
AcDbVertex
100
AcDb2dVertex
 10
222.5781114520619
 20
101.8558579299135
 30
0.0
  0
SEQEND
  5
4A6
330
4A3
100
AcDbEntity
  8
Sichtbare Kanten(TC_020513_DIN)
  0
LINE
  5
4BE
330
37
100
AcDbEntity
  8
Sichtbare Kanten(TC_020513_DIN)
100
AcDbLine
 10
227.0781115712726
 20
102.0124388142702
 30
0.0
 11
227.5729530972907
 21
101.7267419260174
 31
0.0
  0
LINE
  5
4BF
330
37
100
AcDbEntity
  8
Sichtbare Kanten(TC_020513_DIN)
100
AcDbLine
 10
227.5729530972907
 20
101.7267419260174
 30
0.0
 11
227.5781115712727
 21
101.7237636796753
 31
0.0
  0
LINE
  5
4C0
330
37
100
AcDbEntity
  8
Sichtbare Kanten(TC_020513_DIN)
100
AcDbLine
 10
214.5781115712712
 20
101.8558582418467
 30
0.0
 11
214.5781115712712
 21
102.6577052163089
 31
0.0
  0
POLYLINE
  5
4C1
330
37
100
AcDbEntity
  8
Sichtbare Kanten(TC_020513_DIN)
100
AcDb2dPolyline
 66
     1
 10
0.0
 20
0.0
 30
0.0
 70
   128
  0
VERTEX
  5
4C2
330
4C1
100
AcDbEntity
  8
Sichtbare Kanten(TC_020513_DIN)
100
AcDbVertex
100
AcDb2dVertex
 10
222.5781114520619
 20
100.7139414164705
 30
0.0
  0
VERTEX
  5
4C3
330
4C1
100
AcDbEntity
  8
Sichtbare Kanten(TC_020513_DIN)
100
AcDbVertex
100
AcDb2dVertex
 10
222.888762515981
 20
100.7141190383119
 30
0.0
  0
VERTEX
  5
4C5
330
4C1
100
AcDbEntity
  8
Sichtbare Kanten(TC_020513_DIN)
100
AcDbVertex
100
AcDb2dVertex
 10
223.2038952531407
 20
100.714654288022
 30
0.0
  0
VERTEX
  5
4C6
330
4C1
100
AcDbEntity
  8
Sichtbare Kanten(TC_020513_DIN)
100
AcDbVertex
100
AcDb2dVertex
 10
223.5209037484715
 20
100.7155495497865
 30
0.0
  0
VERTEX
  5
4C7
330
4C1
100
AcDbEntity
  8
Sichtbare Kanten(TC_020513_DIN)
100
AcDbVertex
100
AcDb2dVertex
 10
223.8371838750432
 20
100.7168083998842
 30
0.0
  0
VERTEX
  5
4C8
330
4C1
100
AcDbEntity
  8
Sichtbare Kanten(TC_020513_DIN)
100
AcDbVertex
100
AcDb2dVertex
 10
224.1501285256933
 20
100.7184332225008
 30
0.0
  0
VERTEX
  5
4C9
330
4C1
100
AcDbEntity
  8
Sichtbare Kanten(TC_020513_DIN)
100
AcDbVertex
100
AcDb2dVertex
 10
224.4571317853521
 20
100.7204252097291
 30
0.0
  0
VERTEX
  5
4CA
330
4C1
100
AcDbEntity
  8
Sichtbare Kanten(TC_020513_DIN)
100
AcDbVertex
100
AcDb2dVertex
 10
224.7557474793982
 20
100.7227831694765
 30
0.0
  0
VERTEX
  5
4CB
330
4C1
100
AcDbEntity
  8
Sichtbare Kanten(TC_020513_DIN)
100
AcDbVertex
100
AcDb2dVertex
 10
225.0440789880347
 20
100.7254761073274
 30
0.0
  0
VERTEX
  5
4CC
330
4C1
100
AcDbEntity
  8
Sichtbare Kanten(TC_020513_DIN)
100
AcDbVertex
100
AcDb2dVertex
 10
225.3203405561042
 20
100.7284718367738
 30
0.0
  0
VERTEX
  5
4CD
330
4C1
100
AcDbEntity
  8
Sichtbare Kanten(TC_020513_DIN)
100
AcDbVertex
100
AcDb2dVertex
 10
225.5827500047279
 20
100.7317381713075
 30
0.0
  0
VERTEX
  5
4CE
330
4C1
100
AcDbEntity
  8
Sichtbare Kanten(TC_020513_DIN)
100
AcDbVertex
100
AcDb2dVertex
 10
225.8295263471199
 20
100.7352393481416
 30
0.0
  0
VERTEX
  5
4CF
330
4C1
100
AcDbEntity
  8
Sichtbare Kanten(TC_020513_DIN)
100
AcDbVertex
100
AcDb2dVertex
 10
226.0589410485818
 20
100.7389443728609
 30
0.0
  0
VERTEX
  5
4D0
330
4C1
100
AcDbEntity
  8
Sichtbare Kanten(TC_020513_DIN)
100
AcDbVertex
100
AcDb2dVertex
 10
226.2751688184335
 20
100.7429235789461
 30
0.0
  0
VERTEX
  5
4D1
330
4C1
100
AcDbEntity
  8
Sichtbare Kanten(TC_020513_DIN)
100
AcDbVertex
100
AcDb2dVertex
 10
226.4803494634227
 20
100.7472151133699
 30
0.0
  0
VERTEX
  5
4D2
330
4C1
100
AcDbEntity
  8
Sichtbare Kanten(TC_020513_DIN)
100
AcDbVertex
100
AcDb2dVertex
 10
226.6725660981731
 20
100.75178917381
 30
0.0
  0
VERTEX
  5
4D3
330
4C1
100
AcDbEntity
  8
Sichtbare Kanten(TC_020513_DIN)
100
AcDbVertex
100
AcDb2dVertex
 10
226.8499054135876
 20
100.7566171500368
 30
0.0
  0
VERTEX
  5
4D4
330
4C1
100
AcDbEntity
  8
Sichtbare Kanten(TC_020513_DIN)
100
AcDbVertex
100
AcDb2dVertex
 10
227.0104505242902
 20
100.7616716239137
 30
0.0
  0
VERTEX
  5
4D5
330
4C1
100
AcDbEntity
  8
Sichtbare Kanten(TC_020513_DIN)
100
AcDbVertex
100
AcDb2dVertex
 10
227.1522893132765
 20
100.7669216010255
 30
0.0
  0
VERTEX
  5
4D6
330
4C1
100
AcDbEntity
  8
Sichtbare Kanten(TC_020513_DIN)
100
AcDbVertex
100
AcDb2dVertex
 10
227.2738863648971
 20
100.772334894864
 30
0.0
  0
VERTEX
  5
4D7
330
4C1
100
AcDbEntity
  8
Sichtbare Kanten(TC_020513_DIN)
100
AcDbVertex
100
AcDb2dVertex
 10
227.3750092210373
 20
100.7778697821779
 30
0.0
  0
VERTEX
  5
4D8
330
4C1
100
AcDbEntity
  8
Sichtbare Kanten(TC_020513_DIN)
100
AcDbVertex
100
AcDb2dVertex
 10
227.455705565413
 20
100.783480963437
 30
0.0
  0
VERTEX
  5
4D9
330
4C1
100
AcDbEntity
  8
Sichtbare Kanten(TC_020513_DIN)
100
AcDbVertex
100
AcDb2dVertex
 10
227.5160206975542
 20
100.7891219470186
 30
0.0
  0
VERTEX
  5
4DA
330
4C1
100
AcDbEntity
  8
Sichtbare Kanten(TC_020513_DIN)
100
AcDbVertex
100
AcDb2dVertex
 10
227.5559999169909
 20
100.7947474333925
 30
0.0
  0
VERTEX
  5
4DB
330
4C1
100
AcDbEntity
  8
Sichtbare Kanten(TC_020513_DIN)
100
AcDbVertex
100
AcDb2dVertex
 10
227.575690907439
 20
100.8003133151216
 30
0.0
  0
SEQEND
  5
4C4
330
4C1
100
AcDbEntity
  8
Sichtbare Kanten(TC_020513_DIN)
  0
LINE
  5
4DC
330
37
100
AcDbEntity
  8
Sichtbare Kanten(TC_020513_DIN)
100
AcDbLine
 10
227.5781115712727
 20
100.8017109693026
 30
0.0
 11
227.5756904804508
 21
100.8003131518649
 31
0.0
  0
LINE
  5
4DD
330
37
100
AcDbEntity
  8
Sichtbare Kanten(TC_020513_DIN)
100
AcDbLine
 10
227.5756904804508
 20
100.8003131518649
 30
0.0
 11
227.0781115712726
 21
100.5130358347078
 31
0.0
  0
LINE
  5
4DE
330
37
100
AcDbEntity
  8
Sichtbare Kanten(TC_020513_DIN)
100
AcDbLine
 10
222.5781115712712
 20
99.79922402314597
 30
0.0
 11
214.5781115712712
 21
99.79922402314597
 31
0.0
  0
LINE
  5
4DF
330
37
100
AcDbEntity
  8
Sichtbare Kanten(TC_020513_DIN)
100
AcDbLine
 10
222.5781115712713
 20
100.0130358347078
 30
0.0
 11
214.5781115712713
 21
100.0130358347078
 31
0.0
  0
LINE
  5
4E0
330
37
100
AcDbEntity
  8
Sichtbare Kanten(TC_020513_DIN)
100
AcDbLine
 10
214.5781115712712
 20
100.7139408666093
 30
0.0
 11
222.5781115712712
 21
100.7139408666093
 31
0.0
  0
LINE
  5
4E1
330
37
100
AcDbEntity
  8
Sichtbare Kanten(TC_020513_DIN)
100
AcDbLine
 10
222.5781115712713
 20
100.5130358347078
 30
0.0
 11
214.5781115712713
 21
100.5130358347078
 31
0.0
  0
LINE
  5
4E2
330
37
100
AcDbEntity
  8
Sichtbare Kanten(TC_020513_DIN)
100
AcDbLine
 10
222.5781115712713
 20
100.0130358347078
 30
0.0
 11
227.0781115712726
 21
100.0130358347078
 31
0.0
  0
LINE
  5
4E3
330
37
100
AcDbEntity
  8
Sichtbare Kanten(TC_020513_DIN)
100
AcDbLine
 10
227.0781115712726
 20
100.5130358347078
 30
0.0
 11
227.0781115712726
 21
100.0130358347078
 31
0.0
  0
LINE
  5
4E4
330
37
100
AcDbEntity
  8
Sichtbare Kanten(TC_020513_DIN)
100
AcDbLine
 10
222.5781115712713
 20
100.5130358347078
 30
0.0
 11
227.0781115712726
 21
100.5130358347078
 31
0.0
  0
POLYLINE
  5
4E5
330
37
100
AcDbEntity
  8
Sichtbare Kanten(TC_020513_DIN)
100
AcDb2dPolyline
 66
     1
 10
0.0
 20
0.0
 30
0.0
 70
   128
  0
VERTEX
  5
4E6
330
4E5
100
AcDbEntity
  8
Sichtbare Kanten(TC_020513_DIN)
100
AcDbVertex
100
AcDb2dVertex
 10
227.5764395417774
 20
99.72532685729692
 30
0.0
  0
VERTEX
  5
4E7
330
4E5
100
AcDbEntity
  8
Sichtbare Kanten(TC_020513_DIN)
100
AcDbVertex
100
AcDb2dVertex
 10
227.5582660855853
 20
99.72997840377519
 30
0.0
  0
VERTEX
  5
4E9
330
4E5
100
AcDbEntity
  8
Sichtbare Kanten(TC_020513_DIN)
100
AcDbVertex
100
AcDb2dVertex
 10
227.5196661176286
 20
99.73469670745561
 30
0.0
  0
VERTEX
  5
4EA
330
4E5
100
AcDbEntity
  8
Sichtbare Kanten(TC_020513_DIN)
100
AcDbVertex
100
AcDb2dVertex
 10
227.4605836095414
 20
99.73944362136553
 30
0.0
  0
VERTEX
  5
4EB
330
4E5
100
AcDbEntity
  8
Sichtbare Kanten(TC_020513_DIN)
100
AcDbVertex
100
AcDb2dVertex
 10
227.3809625329574
 20
99.74417861434648
 30
0.0
  0
VERTEX
  5
4EC
330
4E5
100
AcDbEntity
  8
Sichtbare Kanten(TC_020513_DIN)
100
AcDbVertex
100
AcDb2dVertex
 10
227.2807480516036
 20
99.74886353942583
 30
0.0
  0
VERTEX
  5
4ED
330
4E5
100
AcDbEntity
  8
Sichtbare Kanten(TC_020513_DIN)
100
AcDbVertex
100
AcDb2dVertex
 10
227.1598853292066
 20
99.7534614417238
 30
0.0
  0
VERTEX
  5
4EE
330
4E5
100
AcDbEntity
  8
Sichtbare Kanten(TC_020513_DIN)
100
AcDbVertex
100
AcDb2dVertex
 10
227.0186056317883
 20
99.75793417426775
 30
0.0
  0
VERTEX
  5
4EF
330
4E5
100
AcDbEntity
  8
Sichtbare Kanten(TC_020513_DIN)
100
AcDbVertex
100
AcDb2dVertex
 10
226.8584586801129
 20
99.76225193473528
 30
0.0
  0
VERTEX
  5
4F0
330
4E5
100
AcDbEntity
  8
Sichtbare Kanten(TC_020513_DIN)
100
AcDbVertex
100
AcDb2dVertex
 10
226.6813708962993
 20
99.76638968917558
 30
0.0
  0
VERTEX
  5
4F1
330
4E5
100
AcDbEntity
  8
Sichtbare Kanten(TC_020513_DIN)
100
AcDbVertex
100
AcDb2dVertex
 10
226.4892663182811
 20
99.77032001945207
 30
0.0
  0
VERTEX
  5
4F2
330
4E5
100
AcDbEntity
  8
Sichtbare Kanten(TC_020513_DIN)
100
AcDbVertex
100
AcDb2dVertex
 10
226.2840701760843
 20
99.77401550742815
 30
0.0
  0
VERTEX
  5
4F3
330
4E5
100
AcDbEntity
  8
Sichtbare Kanten(TC_020513_DIN)
100
AcDbVertex
100
AcDb2dVertex
 10
226.0677088918283
 20
99.77744992706011
 30
0.0
  0
VERTEX
  5
4F4
330
4E5
100
AcDbEntity
  8
Sichtbare Kanten(TC_020513_DIN)
100
AcDbVertex
100
AcDb2dVertex
 10
225.8379091443611
 20
99.78065784904192
 30
0.0
  0
VERTEX
  5
4F5
330
4E5
100
AcDbEntity
  8
Sichtbare Kanten(TC_020513_DIN)
100
AcDbVertex
100
AcDb2dVertex
 10
225.5906595410896
 20
99.78369649383257
 30
0.0
  0
VERTEX
  5
4F6
330
4E5
100
AcDbEntity
  8
Sichtbare Kanten(TC_020513_DIN)
100
AcDbVertex
100
AcDb2dVertex
 10
225.3277053060127
 20
99.78653367492388
 30
0.0
  0
VERTEX
  5
4F7
330
4E5
100
AcDbEntity
  8
Sichtbare Kanten(TC_020513_DIN)
100
AcDbVertex
100
AcDb2dVertex
 10
225.0508321942877
 20
99.78914197417925
 30
0.0
  0
VERTEX
  5
4F8
330
4E5
100
AcDbEntity
  8
Sichtbare Kanten(TC_020513_DIN)
100
AcDbVertex
100
AcDb2dVertex
 10
224.7618247689795
 20
99.7914903971834
 30
0.0
  0
VERTEX
  5
4F9
330
4E5
100
AcDbEntity
  8
Sichtbare Kanten(TC_020513_DIN)
100
AcDbVertex
100
AcDb2dVertex
 10
224.4624687852453
 20
99.79354794952104
 30
0.0
  0
VERTEX
  5
4FA
330
4E5
100
AcDbEntity
  8
Sichtbare Kanten(TC_020513_DIN)
100
AcDbVertex
100
AcDb2dVertex
 10
224.1546692075323
 20
99.79528959724138
 30
0.0
  0
VERTEX
  5
4FB
330
4E5
100
AcDbEntity
  8
Sichtbare Kanten(TC_020513_DIN)
100
AcDbVertex
100
AcDb2dVertex
 10
223.8408817472051
 20
99.79671057197283
 30
0.0
  0
VERTEX
  5
4FC
330
4E5
100
AcDbEntity
  8
Sichtbare Kanten(TC_020513_DIN)
100
AcDbVertex
100
AcDb2dVertex
 10
223.5237206639836
 20
99.79781325790117
 30
0.0
  0
VERTEX
  5
4FD
330
4E5
100
AcDbEntity
  8
Sichtbare Kanten(TC_020513_DIN)
100
AcDbVertex
100
AcDb2dVertex
 10
223.2057966413091
 20
99.79859765502641
 30
0.0
  0
VERTEX
  5
4FE
330
4E5
100
AcDbEntity
  8
Sichtbare Kanten(TC_020513_DIN)
100
AcDbVertex
100
AcDb2dVertex
 10
222.8897227468083
 20
99.79906733962724
 30
0.0
  0
VERTEX
  5
4FF
330
4E5
100
AcDbEntity
  8
Sichtbare Kanten(TC_020513_DIN)
100
AcDbVertex
100
AcDb2dVertex
 10
222.5781114520619
 20
99.79922350379656
 30
0.0
  0
SEQEND
  5
4E8
330
4E5
100
AcDbEntity
  8
Sichtbare Kanten(TC_020513_DIN)
  0
LINE
  5
500
330
37
100
AcDbEntity
  8
Sichtbare Kanten(TC_020513_DIN)
100
AcDbLine
 10
227.0781115712726
 20
100.0130358347078
 30
0.0
 11
227.5764390431895
 21
99.72532633465199
 31
0.0
  0
LINE
  5
501
330
37
100
AcDbEntity
  8
Sichtbare Kanten(TC_020513_DIN)
100
AcDbLine
 10
227.5764390431895
 20
99.72532633465199
 30
0.0
 11
227.5781115712726
 21
99.72436070011298
 31
0.0
  0
LINE
  5
502
330
37
100
AcDbEntity
  8
Sichtbare Kanten(TC_020513_DIN)
100
AcDbLine
 10
214.5781115712712
 20
99.79922402314597
 30
0.0
 11
214.5781115712712
 21
100.7139408666093
 31
0.0
  0
POLYLINE
  5
503
330
37
100
AcDbEntity
  8
Sichtbare Kanten(TC_020513_DIN)
100
AcDb2dPolyline
 66
     1
 10
0.0
 20
0.0
 30
0.0
 70
   128
  0
VERTEX
  5
504
330
503
100
AcDbEntity
  8
Sichtbare Kanten(TC_020513_DIN)
100
AcDbVertex
100
AcDb2dVertex
 10
198.5904361428821
 20
104.7934013220949
 30
0.0
  0
VERTEX
  5
505
330
503
100
AcDbEntity
  8
Sichtbare Kanten(TC_020513_DIN)
100
AcDbVertex
100
AcDb2dVertex
 10
198.6221243562304
 20
104.7807532164735
 30
0.0
  0
VERTEX
  5
507
330
503
100
AcDbEntity
  8
Sichtbare Kanten(TC_020513_DIN)
100
AcDbVertex
100
AcDb2dVertex
 10
198.6730851354203
 20
104.7682076308412
 30
0.0
  0
VERTEX
  5
508
330
503
100
AcDbEntity
  8
Sichtbare Kanten(TC_020513_DIN)
100
AcDbVertex
100
AcDb2dVertex
 10
198.7430824460587
 20
104.7558003279848
 30
0.0
  0
VERTEX
  5
509
330
503
100
AcDbEntity
  8
Sichtbare Kanten(TC_020513_DIN)
100
AcDbVertex
100
AcDb2dVertex
 10
198.831881445845
 20
104.7435742232484
 30
0.0
  0
VERTEX
  5
50A
330
503
100
AcDbEntity
  8
Sichtbare Kanten(TC_020513_DIN)
100
AcDbVertex
100
AcDb2dVertex
 10
198.9392508687575
 20
104.7315603110475
 30
0.0
  0
VERTEX
  5
50B
330
503
100
AcDbEntity
  8
Sichtbare Kanten(TC_020513_DIN)
100
AcDbVertex
100
AcDb2dVertex
 10
199.0649546804029
 20
104.7197967383546
 30
0.0
  0
VERTEX
  5
50C
330
503
100
AcDbEntity
  8
Sichtbare Kanten(TC_020513_DIN)
100
AcDbVertex
100
AcDb2dVertex
 10
199.2084385575848
 20
104.7083478781862
 30
0.0
  0
VERTEX
  5
50D
330
503
100
AcDbEntity
  8
Sichtbare Kanten(TC_020513_DIN)
100
AcDbVertex
100
AcDb2dVertex
 10
199.3687035264568
 20
104.6972924086732
 30
0.0
  0
VERTEX
  5
50E
330
503
100
AcDbEntity
  8
Sichtbare Kanten(TC_020513_DIN)
100
AcDbVertex
100
AcDb2dVertex
 10
199.5451904954509
 20
104.6866613242311
 30
0.0
  0
VERTEX
  5
50F
330
503
100
AcDbEntity
  8
Sichtbare Kanten(TC_020513_DIN)
100
AcDbVertex
100
AcDb2dVertex
 10
199.737352293928
 20
104.6764903876466
 30
0.0
  0
VERTEX
  5
510
330
503
100
AcDbEntity
  8
Sichtbare Kanten(TC_020513_DIN)
100
AcDbVertex
100
AcDb2dVertex
 10
199.9446369828775
 20
104.6668082091493
 30
0.0
  0
VERTEX
  5
511
330
503
100
AcDbEntity
  8
Sichtbare Kanten(TC_020513_DIN)
100
AcDbVertex
100
AcDb2dVertex
 10
200.1664985837533
 20
104.6576529357118
 30
0.0
  0
VERTEX
  5
512
330
503
100
AcDbEntity
  8
Sichtbare Kanten(TC_020513_DIN)
100
AcDbVertex
100
AcDb2dVertex
 10
200.4021097840859
 20
104.6490627143068
 30
0.0
  0
VERTEX
  5
513
330
503
100
AcDbEntity
  8
Sichtbare Kanten(TC_020513_DIN)
100
AcDbVertex
100
AcDb2dVertex
 10
200.649762314756
 20
104.6411043021364
 30
0.0
  0
VERTEX
  5
514
330
503
100
AcDbEntity
  8
Sichtbare Kanten(TC_020513_DIN)
100
AcDbVertex
100
AcDb2dVertex
 10
200.9085764112068
 20
104.6338039252443
 30
0.0
  0
VERTEX
  5
515
330
503
100
AcDbEntity
  8
Sichtbare Kanten(TC_020513_DIN)
100
AcDbVertex
100
AcDb2dVertex
 10
201.1777676763129
 20
104.6271878096742
 30
0.0
  0
VERTEX
  5
516
330
503
100
AcDbEntity
  8
Sichtbare Kanten(TC_020513_DIN)
100
AcDbVertex
100
AcDb2dVertex
 10
201.456554097135
 20
104.6212726447267
 30
0.0
  0
VERTEX
  5
517
330
503
100
AcDbEntity
  8
Sichtbare Kanten(TC_020513_DIN)
100
AcDbVertex
100
AcDb2dVertex
 10
201.7441524686407
 20
104.6160846564454
 30
0.0
  0
VERTEX
  5
518
330
503
100
AcDbEntity
  8
Sichtbare Kanten(TC_020513_DIN)
100
AcDbVertex
100
AcDb2dVertex
 10
202.0391978444647
 20
104.61165245506
 30
0.0
  0
VERTEX
  5
519
330
503
100
AcDbEntity
  8
Sichtbare Kanten(TC_020513_DIN)
100
AcDbVertex
100
AcDb2dVertex
 10
202.3397137345861
 20
104.6080094191713
 30
0.0
  0
VERTEX
  5
51A
330
503
100
AcDbEntity
  8
Sichtbare Kanten(TC_020513_DIN)
100
AcDbVertex
100
AcDb2dVertex
 10
202.6447679223608
 20
104.605160317151
 30
0.0
  0
VERTEX
  5
51B
330
503
100
AcDbEntity
  8
Sichtbare Kanten(TC_020513_DIN)
100
AcDbVertex
100
AcDb2dVertex
 10
202.9534568013738
 20
104.6031146857423
 30
0.0
  0
VERTEX
  5
51C
330
503
100
AcDbEntity
  8
Sichtbare Kanten(TC_020513_DIN)
100
AcDbVertex
100
AcDb2dVertex
 10
203.2648725928853
 20
104.6018820616884
 30
0.0
  0
VERTEX
  5
51D
330
503
100
AcDbEntity
  8
Sichtbare Kanten(TC_020513_DIN)
100
AcDbVertex
100
AcDb2dVertex
 10
203.5781116904805
 20
104.6014695975465
 30
0.0
  0
SEQEND
  5
506
330
503
100
AcDbEntity
  8
Sichtbare Kanten(TC_020513_DIN)
  0
LINE
  5
51E
330
37
100
AcDbEntity
  8
Sichtbare Kanten(TC_020513_DIN)
100
AcDbLine
 10
198.5904355668212
 20
104.7934016662798
 30
0.0
 11
199.0781115712726
 21
104.5118417938325
 31
0.0
  0
LINE
  5
51F
330
37
100
AcDbEntity
  8
Sichtbare Kanten(TC_020513_DIN)
100
AcDbLine
 10
203.5781115712713
 20
104.5118417938325
 30
0.0
 11
199.0781115712726
 21
104.5118417938325
 31
0.0
  0
LINE
  5
520
330
37
100
AcDbEntity
  8
Sichtbare Kanten(TC_020513_DIN)
100
AcDbLine
 10
203.5781115712712
 20
104.6014695660085
 30
0.0
 11
211.5781115712712
 21
104.6014695660085
 31
0.0
  0
LINE
  5
521
330
37
100
AcDbEntity
  8
Sichtbare Kanten(TC_020513_DIN)
100
AcDbLine
 10
203.5781115712713
 20
104.5118417938325
 30
0.0
 11
211.5781115712713
 21
104.5118417938325
 31
0.0
  0
LINE
  5
522
330
37
100
AcDbEntity
  8
Sichtbare Kanten(TC_020513_DIN)
100
AcDbLine
 10
211.5781115712712
 20
104.6014695660085
 30
0.0
 11
211.5781115712712
 21
103.9124924605474
 31
0.0
  0
LINE
  5
523
330
37
100
AcDbEntity
  8
Sichtbare Kanten(TC_020513_DIN)
100
AcDbLine
 10
211.5781115712712
 20
103.9124924605474
 30
0.0
 11
203.5781115712712
 21
103.9124924605474
 31
0.0
  0
LINE
  5
524
330
37
100
AcDbEntity
  8
Sichtbare Kanten(TC_020513_DIN)
100
AcDbLine
 10
203.5781115712713
 20
104.0118417938325
 30
0.0
 11
211.5781115712713
 21
104.0118417938325
 31
0.0
  0
POLYLINE
  5
525
330
37
100
AcDbEntity
  8
Sichtbare Kanten(TC_020513_DIN)
100
AcDb2dPolyline
 66
     1
 10
0.0
 20
0.0
 30
0.0
 70
   128
  0
VERTEX
  5
526
330
525
100
AcDbEntity
  8
Sichtbare Kanten(TC_020513_DIN)
100
AcDbVertex
100
AcDb2dVertex
 10
203.5781116904805
 20
103.9124923560304
 30
0.0
  0
VERTEX
  5
527
330
525
100
AcDbEntity
  8
Sichtbare Kanten(TC_020513_DIN)
100
AcDbVertex
100
AcDb2dVertex
 10
203.2745613278935
 20
103.912097773282
 30
0.0
  0
VERTEX
  5
529
330
525
100
AcDbEntity
  8
Sichtbare Kanten(TC_020513_DIN)
100
AcDbVertex
100
AcDb2dVertex
 10
202.96634570976
 20
103.9109128329439
 30
0.0
  0
VERTEX
  5
52A
330
525
100
AcDbEntity
  8
Sichtbare Kanten(TC_020513_DIN)
100
AcDbVertex
100
AcDb2dVertex
 10
202.6560188951085
 20
103.9089327666444
 30
0.0
  0
VERTEX
  5
52B
330
525
100
AcDbEntity
  8
Sichtbare Kanten(TC_020513_DIN)
100
AcDbVertex
100
AcDb2dVertex
 10
202.3461319627355
 20
103.9061516139192
 30
0.0
  0
VERTEX
  5
52C
330
525
100
AcDbEntity
  8
Sichtbare Kanten(TC_020513_DIN)
100
AcDbVertex
100
AcDb2dVertex
 10
202.0392383756231
 20
103.9025681826753
 30
0.0
  0
VERTEX
  5
52D
330
525
100
AcDbEntity
  8
Sichtbare Kanten(TC_020513_DIN)
100
AcDbVertex
100
AcDb2dVertex
 10
201.7378915967535
 20
103.8981777045412
 30
0.0
  0
VERTEX
  5
52E
330
525
100
AcDbEntity
  8
Sichtbare Kanten(TC_020513_DIN)
100
AcDbVertex
100
AcDb2dVertex
 10
201.444461506803
 20
103.8929956767244
 30
0.0
  0
VERTEX
  5
52F
330
525
100
AcDbEntity
  8
Sichtbare Kanten(TC_020513_DIN)
100
AcDbVertex
100
AcDb2dVertex
 10
201.1608149232459
 20
103.8870960089845
 30
0.0
  0
VERTEX
  5
530
330
525
100
AcDbEntity
  8
Sichtbare Kanten(TC_020513_DIN)
100
AcDbVertex
100
AcDb2dVertex
 10
200.8887256803108
 20
103.8805573794526
 30
0.0
  0
VERTEX
  5
531
330
525
100
AcDbEntity
  8
Sichtbare Kanten(TC_020513_DIN)
100
AcDbVertex
100
AcDb2dVertex
 10
200.6299652280403
 20
103.8734596583528
 30
0.0
  0
VERTEX
  5
532
330
525
100
AcDbEntity
  8
Sichtbare Kanten(TC_020513_DIN)
100
AcDbVertex
100
AcDb2dVertex
 10
200.3863085927559
 20
103.8658815238161
 30
0.0
  0
VERTEX
  5
533
330
525
100
AcDbEntity
  8
Sichtbare Kanten(TC_020513_DIN)
100
AcDbVertex
100
AcDb2dVertex
 10
200.1592590035989
 20
103.8578945014162
 30
0.0
  0
VERTEX
  5
534
330
525
100
AcDbEntity
  8
Sichtbare Kanten(TC_020513_DIN)
100
AcDbVertex
100
AcDb2dVertex
 10
199.9436463536813
 20
103.8493197772188
 30
0.0
  0
VERTEX
  5
535
330
525
100
AcDbEntity
  8
Sichtbare Kanten(TC_020513_DIN)
100
AcDbVertex
100
AcDb2dVertex
 10
199.7382713975504
 20
103.8401168200655
 30
0.0
  0
VERTEX
  5
536
330
525
100
AcDbEntity
  8
Sichtbare Kanten(TC_020513_DIN)
100
AcDbVertex
100
AcDb2dVertex
 10
199.5450045289592
 20
103.8303500029726
 30
0.0
  0
VERTEX
  5
537
330
525
100
AcDbEntity
  8
Sichtbare Kanten(TC_020513_DIN)
100
AcDbVertex
100
AcDb2dVertex
 10
199.3657137574749
 20
103.820088467328
 30
0.0
  0
VERTEX
  5
538
330
525
100
AcDbEntity
  8
Sichtbare Kanten(TC_020513_DIN)
100
AcDbVertex
100
AcDb2dVertex
 10
199.2022670926648
 20
103.809398970334
 30
0.0
  0
VERTEX
  5
539
330
525
100
AcDbEntity
  8
Sichtbare Kanten(TC_020513_DIN)
100
AcDbVertex
100
AcDb2dVertex
 10
199.0565337361891
 20
103.7983494612855
 30
0.0
  0
VERTEX
  5
53A
330
525
100
AcDbEntity
  8
Sichtbare Kanten(TC_020513_DIN)
100
AcDbVertex
100
AcDb2dVertex
 10
198.929958504637
 20
103.7870138499422
 30
0.0
  0
VERTEX
  5
53B
330
525
100
AcDbEntity
  8
Sichtbare Kanten(TC_020513_DIN)
100
AcDbVertex
100
AcDb2dVertex
 10
198.8227845849594
 20
103.7754839274568
 30
0.0
  0
VERTEX
  5
53C
330
525
100
AcDbEntity
  8
Sichtbare Kanten(TC_020513_DIN)
100
AcDbVertex
100
AcDb2dVertex
 10
198.7350393952927
 20
103.7638514849824
 30
0.0
  0
VERTEX
  5
53D
330
525
100
AcDbEntity
  8
Sichtbare Kanten(TC_020513_DIN)
100
AcDbVertex
100
AcDb2dVertex
 10
198.6667539300523
 20
103.7522095057649
 30
0.0
  0
VERTEX
  5
53E
330
525
100
AcDbEntity
  8
Sichtbare Kanten(TC_020513_DIN)
100
AcDbVertex
100
AcDb2dVertex
 10
198.6179556073748
 20
103.7406497809572
 30
0.0
  0
VERTEX
  5
53F
330
525
100
AcDbEntity
  8
Sichtbare Kanten(TC_020513_DIN)
100
AcDbVertex
100
AcDb2dVertex
 10
198.5886754216754
 20
103.7292652938051
 30
0.0
  0
SEQEND
  5
528
330
525
100
AcDbEntity
  8
Sichtbare Kanten(TC_020513_DIN)
  0
LINE
  5
540
330
37
100
AcDbEntity
  8
Sichtbare Kanten(TC_020513_DIN)
100
AcDbLine
 10
203.5781115712713
 20
104.0118417938325
 30
0.0
 11
199.0781115712726
 21
104.0118417938325
 31
0.0
  0
LINE
  5
541
330
37
100
AcDbEntity
  8
Sichtbare Kanten(TC_020513_DIN)
100
AcDbLine
 10
199.0781115712726
 20
104.0118417938325
 30
0.0
 11
198.5886748277118
 21
103.7292653581864
 31
0.0
  0
LINE
  5
542
330
37
100
AcDbEntity
  8
Sichtbare Kanten(TC_020513_DIN)
100
AcDbLine
 10
198.5781115712727
 20
103.7231666592377
 30
0.0
 11
198.5886748277118
 21
103.7292653581864
 31
0.0
  0
LINE
  5
543
330
37
100
AcDbEntity
  8
Sichtbare Kanten(TC_020513_DIN)
100
AcDbLine
 10
199.0781115712726
 20
104.5118417938325
 30
0.0
 11
199.0781115712726
 21
104.0118417938325
 31
0.0
  0
LINE
  5
544
330
37
100
AcDbEntity
  8
Sichtbare Kanten(TC_020513_DIN)
100
AcDbLine
 10
198.5904355668212
 20
104.7934016662799
 30
0.0
 11
198.5781115712727
 21
104.8005169284273
 31
0.0
  0
LINE
  5
545
330
37
100
AcDbEntity
  8
Sichtbare Kanten(TC_020513_DIN)
100
AcDbLine
 10
203.5781115712712
 20
102.6577052163089
 30
0.0
 11
211.5781115712712
 21
102.6577052163089
 31
0.0
  0
LINE
  5
546
330
37
100
AcDbEntity
  8
Sichtbare Kanten(TC_020513_DIN)
100
AcDbLine
 10
211.5781115712712
 20
102.6577052163089
 30
0.0
 11
211.5781115712712
 21
101.8558582418467
 31
0.0
  0
LINE
  5
547
330
37
100
AcDbEntity
  8
Sichtbare Kanten(TC_020513_DIN)
100
AcDbLine
 10
211.5781115712712
 20
101.8558582418467
 30
0.0
 11
203.5781115712712
 21
101.8558582418467
 31
0.0
  0
LINE
  5
548
330
37
100
AcDbEntity
  8
Sichtbare Kanten(TC_020513_DIN)
100
AcDbLine
 10
203.5781115712712
 20
100.7139408666093
 30
0.0
 11
211.5781115712712
 21
100.7139408666093
 31
0.0
  0
LINE
  5
549
330
37
100
AcDbEntity
  8
Sichtbare Kanten(TC_020513_DIN)
100
AcDbLine
 10
211.5781115712712
 20
100.7139408666093
 30
0.0
 11
211.5781115712711
 21
99.79922402314597
 31
0.0
  0
LINE
  5
54A
330
37
100
AcDbEntity
  8
Sichtbare Kanten(TC_020513_DIN)
100
AcDbLine
 10
211.5781115712711
 20
99.79922402314597
 30
0.0
 11
203.5781115712712
 21
99.79922402314597
 31
0.0
  0
LINE
  5
54B
330
37
100
AcDbEntity
  8
Sichtbare Kanten(TC_020513_DIN)
100
AcDbLine
 10
198.584527871602
 20
102.7974094961425
 30
0.0
 11
198.5781115712727
 21
102.8011139488649
 31
0.0
  0
POLYLINE
  5
54C
330
37
100
AcDbEntity
  8
Sichtbare Kanten(TC_020513_DIN)
100
AcDb2dPolyline
 66
     1
 10
0.0
 20
0.0
 30
0.0
 70
   128
  0
VERTEX
  5
54D
330
54C
100
AcDbEntity
  8
Sichtbare Kanten(TC_020513_DIN)
100
AcDbVertex
100
AcDb2dVertex
 10
198.584528130492
 20
102.7974098536653
 30
0.0
  0
VERTEX
  5
54E
330
54C
100
AcDbEntity
  8
Sichtbare Kanten(TC_020513_DIN)
100
AcDbVertex
100
AcDb2dVertex
 10
198.6097909631335
 20
102.7884703490419
 30
0.0
  0
VERTEX
  5
550
330
54C
100
AcDbEntity
  8
Sichtbare Kanten(TC_020513_DIN)
100
AcDbVertex
100
AcDb2dVertex
 10
198.6548806848131
 20
102.7794283244295
 30
0.0
  0
VERTEX
  5
551
330
54C
100
AcDbEntity
  8
Sichtbare Kanten(TC_020513_DIN)
100
AcDbVertex
100
AcDb2dVertex
 10
198.7198008718094
 20
102.7703553054017
 30
0.0
  0
VERTEX
  5
552
330
54C
100
AcDbEntity
  8
Sichtbare Kanten(TC_020513_DIN)
100
AcDbVertex
100
AcDb2dVertex
 10
198.804557484587
 20
102.7613228175325
 30
0.0
  0
VERTEX
  5
553
330
54C
100
AcDbEntity
  8
Sichtbare Kanten(TC_020513_DIN)
100
AcDbVertex
100
AcDb2dVertex
 10
198.9091540994246
 20
102.7524047705812
 30
0.0
  0
VERTEX
  5
554
330
54C
100
AcDbEntity
  8
Sichtbare Kanten(TC_020513_DIN)
100
AcDbVertex
100
AcDb2dVertex
 10
199.0335954846937
 20
102.7436726901216
 30
0.0
  0
VERTEX
  5
555
330
54C
100
AcDbEntity
  8
Sichtbare Kanten(TC_020513_DIN)
100
AcDbVertex
100
AcDb2dVertex
 10
199.1776467980938
 20
102.7351957175417
 30
0.0
  0
VERTEX
  5
556
330
54C
100
AcDbEntity
  8
Sichtbare Kanten(TC_020513_DIN)
100
AcDbVertex
100
AcDb2dVertex
 10
199.339826268156
 20
102.7270286891145
 30
0.0
  0
VERTEX
  5
557
330
54C
100
AcDbEntity
  8
Sichtbare Kanten(TC_020513_DIN)
100
AcDbVertex
100
AcDb2dVertex
 10
199.5182503881053
 20
102.7192157122774
 30
0.0
  0
VERTEX
  5
558
330
54C
100
AcDbEntity
  8
Sichtbare Kanten(TC_020513_DIN)
100
AcDbVertex
100
AcDb2dVertex
 10
199.7110320748881
 20
102.7118080470247
 30
0.0
  0
VERTEX
  5
559
330
54C
100
AcDbEntity
  8
Sichtbare Kanten(TC_020513_DIN)
100
AcDbVertex
100
AcDb2dVertex
 10
199.9162878217294
 20
102.7048498007936
 30
0.0
  0
VERTEX
  5
55A
330
54C
100
AcDbEntity
  8
Sichtbare Kanten(TC_020513_DIN)
100
AcDbVertex
100
AcDb2dVertex
 10
200.1321305455758
 20
102.6983910414857
 30
0.0
  0
VERTEX
  5
55B
330
54C
100
AcDbEntity
  8
Sichtbare Kanten(TC_020513_DIN)
100
AcDbVertex
100
AcDb2dVertex
 10
200.3601671876503
 20
102.6923828932924
 30
0.0
  0
VERTEX
  5
55C
330
54C
100
AcDbEntity
  8
Sichtbare Kanten(TC_020513_DIN)
100
AcDbVertex
100
AcDb2dVertex
 10
200.6051637353493
 20
102.6867001864595
 30
0.0
  0
VERTEX
  5
55D
330
54C
100
AcDbEntity
  8
Sichtbare Kanten(TC_020513_DIN)
100
AcDbVertex
100
AcDb2dVertex
 10
200.8655001344276
 20
102.6813929888887
 30
0.0
  0
VERTEX
  5
55E
330
54C
100
AcDbEntity
  8
Sichtbare Kanten(TC_020513_DIN)
100
AcDbVertex
100
AcDb2dVertex
 10
201.1393989743781
 20
102.676518521039
 30
0.0
  0
VERTEX
  5
55F
330
54C
100
AcDbEntity
  8
Sichtbare Kanten(TC_020513_DIN)
100
AcDbVertex
100
AcDb2dVertex
 10
201.4250840367865
 20
102.6721316191835
 30
0.0
  0
VERTEX
  5
560
330
54C
100
AcDbEntity
  8
Sichtbare Kanten(TC_020513_DIN)
100
AcDbVertex
100
AcDb2dVertex
 10
201.7207779111456
 20
102.6682871195955
 30
0.0
  0
VERTEX
  5
561
330
54C
100
AcDbEntity
  8
Sichtbare Kanten(TC_020513_DIN)
100
AcDbVertex
100
AcDb2dVertex
 10
202.0246054353307
 20
102.6650362822694
 30
0.0
  0
VERTEX
  5
562
330
54C
100
AcDbEntity
  8
Sichtbare Kanten(TC_020513_DIN)
100
AcDbVertex
100
AcDb2dVertex
 10
202.334158581693
 20
102.6623850676698
 30
0.0
  0
VERTEX
  5
563
330
54C
100
AcDbEntity
  8
Sichtbare Kanten(TC_020513_DIN)
100
AcDbVertex
100
AcDb2dVertex
 10
202.6468624295781
 20
102.6603310916109
 30
0.0
  0
VERTEX
  5
564
330
54C
100
AcDbEntity
  8
Sichtbare Kanten(TC_020513_DIN)
100
AcDbVertex
100
AcDb2dVertex
 10
202.960139674146
 20
102.658869585721
 30
0.0
  0
VERTEX
  5
565
330
54C
100
AcDbEntity
  8
Sichtbare Kanten(TC_020513_DIN)
100
AcDbVertex
100
AcDb2dVertex
 10
203.2714153947423
 20
102.6579957816286
 30
0.0
  0
VERTEX
  5
566
330
54C
100
AcDbEntity
  8
Sichtbare Kanten(TC_020513_DIN)
100
AcDbVertex
100
AcDb2dVertex
 10
203.5781116904805
 20
102.6577049109621
 30
0.0
  0
SEQEND
  5
54F
330
54C
100
AcDbEntity
  8
Sichtbare Kanten(TC_020513_DIN)
  0
LINE
  5
567
330
37
100
AcDbEntity
  8
Sichtbare Kanten(TC_020513_DIN)
100
AcDbLine
 10
198.584527871602
 20
102.7974094961425
 30
0.0
 11
199.0781115712726
 21
102.5124388142701
 31
0.0
  0
LINE
  5
568
330
37
100
AcDbEntity
  8
Sichtbare Kanten(TC_020513_DIN)
100
AcDbLine
 10
203.5781115712713
 20
102.5124388142701
 30
0.0
 11
199.0781115712726
 21
102.5124388142701
 31
0.0
  0
LINE
  5
569
330
37
100
AcDbEntity
  8
Sichtbare Kanten(TC_020513_DIN)
100
AcDbLine
 10
203.5781115712713
 20
102.5124388142701
 30
0.0
 11
211.5781115712713
 21
102.5124388142701
 31
0.0
  0
LINE
  5
56A
330
37
100
AcDbEntity
  8
Sichtbare Kanten(TC_020513_DIN)
100
AcDbLine
 10
203.5781115712713
 20
102.0124388142702
 30
0.0
 11
211.5781115712713
 21
102.0124388142702
 31
0.0
  0
POLYLINE
  5
56B
330
37
100
AcDbEntity
  8
Sichtbare Kanten(TC_020513_DIN)
100
AcDb2dPolyline
 66
     1
 10
0.0
 20
0.0
 30
0.0
 70
   128
  0
VERTEX
  5
56C
330
56B
100
AcDbEntity
  8
Sichtbare Kanten(TC_020513_DIN)
100
AcDbVertex
100
AcDb2dVertex
 10
203.5781116904805
 20
101.8558579299135
 30
0.0
  0
VERTEX
  5
56D
330
56B
100
AcDbEntity
  8
Sichtbare Kanten(TC_020513_DIN)
100
AcDbVertex
100
AcDb2dVertex
 10
203.2600112380574
 20
101.8555754038972
 30
0.0
  0
VERTEX
  5
56F
330
56B
100
AcDbEntity
  8
Sichtbare Kanten(TC_020513_DIN)
100
AcDbVertex
100
AcDb2dVertex
 10
202.9438533010075
 20
101.8547302100343
 30
0.0
  0
VERTEX
  5
570
330
56B
100
AcDbEntity
  8
Sichtbare Kanten(TC_020513_DIN)
100
AcDbVertex
100
AcDb2dVertex
 10
202.630583208997
 20
101.8533295008821
 30
0.0
  0
VERTEX
  5
571
330
56B
100
AcDbEntity
  8
Sichtbare Kanten(TC_020513_DIN)
100
AcDbVertex
100
AcDb2dVertex
 10
202.3211480798315
 20
101.8513804289979
 30
0.0
  0
VERTEX
  5
572
330
56B
100
AcDbEntity
  8
Sichtbare Kanten(TC_020513_DIN)
100
AcDbVertex
100
AcDb2dVertex
 10
202.0164932431768
 20
101.8488889548463
 30
0.0
  0
VERTEX
  5
573
330
56B
100
AcDbEntity
  8
Sichtbare Kanten(TC_020513_DIN)
100
AcDbVertex
100
AcDb2dVertex
 10
201.717567604978
 20
101.8458622309846
 30
0.0
  0
VERTEX
  5
574
330
56B
100
AcDbEntity
  8
Sichtbare Kanten(TC_020513_DIN)
100
AcDbVertex
100
AcDb2dVertex
 10
201.4259959878515
 20
101.8423157546205
 30
0.0
  0
VERTEX
  5
575
330
56B
100
AcDbEntity
  8
Sichtbare Kanten(TC_020513_DIN)
100
AcDbVertex
100
AcDb2dVertex
 10
201.1437477292609
 20
101.8382781359834
 30
0.0
  0
VERTEX
  5
576
330
56B
100
AcDbEntity
  8
Sichtbare Kanten(TC_020513_DIN)
100
AcDbVertex
100
AcDb2dVertex
 10
200.871644181211
 20
101.8337672564668
 30
0.0
  0
VERTEX
  5
577
330
56B
100
AcDbEntity
  8
Sichtbare Kanten(TC_020513_DIN)
100
AcDbVertex
100
AcDb2dVertex
 10
200.6104888143135
 20
101.828802189557
 30
0.0
  0
VERTEX
  5
578
330
56B
100
AcDbEntity
  8
Sichtbare Kanten(TC_020513_DIN)
100
AcDbVertex
100
AcDb2dVertex
 10
200.3610862912728
 20
101.8233984324617
 30
0.0
  0
VERTEX
  5
579
330
56B
100
AcDbEntity
  8
Sichtbare Kanten(TC_020513_DIN)
100
AcDbVertex
100
AcDb2dVertex
 10
200.1242424668862
 20
101.8175750586671
 30
0.0
  0
VERTEX
  5
57A
330
56B
100
AcDbEntity
  8
Sichtbare Kanten(TC_020513_DIN)
100
AcDbVertex
100
AcDb2dVertex
 10
199.9011136712625
 20
101.8113606784029
 30
0.0
  0
VERTEX
  5
57B
330
56B
100
AcDbEntity
  8
Sichtbare Kanten(TC_020513_DIN)
100
AcDbVertex
100
AcDb2dVertex
 10
199.6932985009745
 20
101.8048053595705
 30
0.0
  0
VERTEX
  5
57C
330
56B
100
AcDbEntity
  8
Sichtbare Kanten(TC_020513_DIN)
100
AcDbVertex
100
AcDb2dVertex
 10
199.5013989629344
 20
101.7979329440279
 30
0.0
  0
VERTEX
  5
57D
330
56B
100
AcDbEntity
  8
Sichtbare Kanten(TC_020513_DIN)
100
AcDbVertex
100
AcDb2dVertex
 10
199.3259622277813
 20
101.7907684657259
 30
0.0
  0
VERTEX
  5
57E
330
56B
100
AcDbEntity
  8
Sichtbare Kanten(TC_020513_DIN)
100
AcDbVertex
100
AcDb2dVertex
 10
199.167536658247
 20
101.7833357665224
 30
0.0
  0
VERTEX
  5
57F
330
56B
100
AcDbEntity
  8
Sichtbare Kanten(TC_020513_DIN)
100
AcDbVertex
100
AcDb2dVertex
 10
199.0266706170637
 20
101.7756610724611
 30
0.0
  0
VERTEX
  5
580
330
56B
100
AcDbEntity
  8
Sichtbare Kanten(TC_020513_DIN)
100
AcDbVertex
100
AcDb2dVertex
 10
198.9041663827498
 20
101.7677849147005
 30
0.0
  0
VERTEX
  5
581
330
56B
100
AcDbEntity
  8
Sichtbare Kanten(TC_020513_DIN)
100
AcDbVertex
100
AcDb2dVertex
 10
198.8008059682449
 20
101.7597633216066
 30
0.0
  0
VERTEX
  5
582
330
56B
100
AcDbEntity
  8
Sichtbare Kanten(TC_020513_DIN)
100
AcDbVertex
100
AcDb2dVertex
 10
198.716817063292
 20
101.7516225192232
 30
0.0
  0
VERTEX
  5
583
330
56B
100
AcDbEntity
  8
Sichtbare Kanten(TC_020513_DIN)
100
AcDbVertex
100
AcDb2dVertex
 10
198.6524190129838
 20
101.743387541501
 30
0.0
  0
VERTEX
  5
584
330
56B
100
AcDbEntity
  8
Sichtbare Kanten(TC_020513_DIN)
100
AcDbVertex
100
AcDb2dVertex
 10
198.6078299703203
 20
101.7350858065767
 30
0.0
  0
VERTEX
  5
585
330
56B
100
AcDbEntity
  8
Sichtbare Kanten(TC_020513_DIN)
100
AcDbVertex
100
AcDb2dVertex
 10
198.5832704724872
 20
101.726742348401
 30
0.0
  0
SEQEND
  5
56E
330
56B
100
AcDbEntity
  8
Sichtbare Kanten(TC_020513_DIN)
  0
LINE
  5
586
330
37
100
AcDbEntity
  8
Sichtbare Kanten(TC_020513_DIN)
100
AcDbLine
 10
203.5781115712713
 20
102.0124388142702
 30
0.0
 11
199.0781115712726
 21
102.0124388142702
 31
0.0
  0
LINE
  5
587
330
37
100
AcDbEntity
  8
Sichtbare Kanten(TC_020513_DIN)
100
AcDbLine
 10
199.0781115712726
 20
102.0124388142702
 30
0.0
 11
198.5832700452545
 21
101.7267419260174
 31
0.0
  0
LINE
  5
588
330
37
100
AcDbEntity
  8
Sichtbare Kanten(TC_020513_DIN)
100
AcDbLine
 10
198.5781115712726
 20
101.7237636796753
 30
0.0
 11
198.5832700452545
 21
101.7267419260174
 31
0.0
  0
LINE
  5
589
330
37
100
AcDbEntity
  8
Sichtbare Kanten(TC_020513_DIN)
100
AcDbLine
 10
199.0781115712726
 20
102.5124388142701
 30
0.0
 11
199.0781115712726
 21
102.0124388142702
 31
0.0
  0
LINE
  5
58A
330
37
100
AcDbEntity
  8
Sichtbare Kanten(TC_020513_DIN)
100
AcDbLine
 10
198.5805326620945
 20
100.8003131518649
 30
0.0
 11
198.5781115712727
 21
100.8017109693026
 31
0.0
  0
POLYLINE
  5
58B
330
37
100
AcDbEntity
  8
Sichtbare Kanten(TC_020513_DIN)
100
AcDb2dPolyline
 66
     1
 10
0.0
 20
0.0
 30
0.0
 70
   128
  0
VERTEX
  5
58C
330
58B
100
AcDbEntity
  8
Sichtbare Kanten(TC_020513_DIN)
100
AcDbVertex
100
AcDb2dVertex
 10
198.5805322351062
 20
100.8003133151216
 30
0.0
  0
VERTEX
  5
58D
330
58B
100
AcDbEntity
  8
Sichtbare Kanten(TC_020513_DIN)
100
AcDbVertex
100
AcDb2dVertex
 10
198.6002232255541
 20
100.7947474333925
 30
0.0
  0
VERTEX
  5
58F
330
58B
100
AcDbEntity
  8
Sichtbare Kanten(TC_020513_DIN)
100
AcDbVertex
100
AcDb2dVertex
 10
198.6402024449907
 20
100.7891219470186
 30
0.0
  0
VERTEX
  5
590
330
58B
100
AcDbEntity
  8
Sichtbare Kanten(TC_020513_DIN)
100
AcDbVertex
100
AcDb2dVertex
 10
198.7005175771317
 20
100.783480963437
 30
0.0
  0
VERTEX
  5
591
330
58B
100
AcDbEntity
  8
Sichtbare Kanten(TC_020513_DIN)
100
AcDbVertex
100
AcDb2dVertex
 10
198.7812139215072
 20
100.7778697821779
 30
0.0
  0
VERTEX
  5
592
330
58B
100
AcDbEntity
  8
Sichtbare Kanten(TC_020513_DIN)
100
AcDbVertex
100
AcDb2dVertex
 10
198.8823367776473
 20
100.772334894864
 30
0.0
  0
VERTEX
  5
593
330
58B
100
AcDbEntity
  8
Sichtbare Kanten(TC_020513_DIN)
100
AcDbVertex
100
AcDb2dVertex
 10
199.0039338292677
 20
100.7669216010255
 30
0.0
  0
VERTEX
  5
594
330
58B
100
AcDbEntity
  8
Sichtbare Kanten(TC_020513_DIN)
100
AcDbVertex
100
AcDb2dVertex
 10
199.1457726182537
 20
100.7616716239137
 30
0.0
  0
VERTEX
  5
595
330
58B
100
AcDbEntity
  8
Sichtbare Kanten(TC_020513_DIN)
100
AcDbVertex
100
AcDb2dVertex
 10
199.3063177289562
 20
100.7566171500368
 30
0.0
  0
VERTEX
  5
596
330
58B
100
AcDbEntity
  8
Sichtbare Kanten(TC_020513_DIN)
100
AcDbVertex
100
AcDb2dVertex
 10
199.4836570443706
 20
100.75178917381
 30
0.0
  0
VERTEX
  5
597
330
58B
100
AcDbEntity
  8
Sichtbare Kanten(TC_020513_DIN)
100
AcDbVertex
100
AcDb2dVertex
 10
199.6758736791209
 20
100.7472151133699
 30
0.0
  0
VERTEX
  5
598
330
58B
100
AcDbEntity
  8
Sichtbare Kanten(TC_020513_DIN)
100
AcDbVertex
100
AcDb2dVertex
 10
199.8810543241098
 20
100.7429235789461
 30
0.0
  0
VERTEX
  5
599
330
58B
100
AcDbEntity
  8
Sichtbare Kanten(TC_020513_DIN)
100
AcDbVertex
100
AcDb2dVertex
 10
200.0972820939614
 20
100.7389443728609
 30
0.0
  0
VERTEX
  5
59A
330
58B
100
AcDbEntity
  8
Sichtbare Kanten(TC_020513_DIN)
100
AcDbVertex
100
AcDb2dVertex
 10
200.3266967954232
 20
100.7352393481416
 30
0.0
  0
VERTEX
  5
59B
330
58B
100
AcDbEntity
  8
Sichtbare Kanten(TC_020513_DIN)
100
AcDbVertex
100
AcDb2dVertex
 10
200.573473137815
 20
100.7317381713075
 30
0.0
  0
VERTEX
  5
59C
330
58B
100
AcDbEntity
  8
Sichtbare Kanten(TC_020513_DIN)
100
AcDbVertex
100
AcDb2dVertex
 10
200.8358825864387
 20
100.7284718367738
 30
0.0
  0
VERTEX
  5
59D
330
58B
100
AcDbEntity
  8
Sichtbare Kanten(TC_020513_DIN)
100
AcDbVertex
100
AcDb2dVertex
 10
201.1121441545081
 20
100.7254761073274
 30
0.0
  0
VERTEX
  5
59E
330
58B
100
AcDbEntity
  8
Sichtbare Kanten(TC_020513_DIN)
100
AcDbVertex
100
AcDb2dVertex
 10
201.4004756631445
 20
100.7227831694765
 30
0.0
  0
VERTEX
  5
59F
330
58B
100
AcDbEntity
  8
Sichtbare Kanten(TC_020513_DIN)
100
AcDbVertex
100
AcDb2dVertex
 10
201.6990913571905
 20
100.7204252097291
 30
0.0
  0
VERTEX
  5
5A0
330
58B
100
AcDbEntity
  8
Sichtbare Kanten(TC_020513_DIN)
100
AcDbVertex
100
AcDb2dVertex
 10
202.0060946168493
 20
100.7184332225008
 30
0.0
  0
VERTEX
  5
5A1
330
58B
100
AcDbEntity
  8
Sichtbare Kanten(TC_020513_DIN)
100
AcDbVertex
100
AcDb2dVertex
 10
202.3190392674993
 20
100.7168083998842
 30
0.0
  0
VERTEX
  5
5A2
330
58B
100
AcDbEntity
  8
Sichtbare Kanten(TC_020513_DIN)
100
AcDbVertex
100
AcDb2dVertex
 10
202.6353193940709
 20
100.7155495497865
 30
0.0
  0
VERTEX
  5
5A3
330
58B
100
AcDbEntity
  8
Sichtbare Kanten(TC_020513_DIN)
100
AcDbVertex
100
AcDb2dVertex
 10
202.9523278894017
 20
100.714654288022
 30
0.0
  0
VERTEX
  5
5A4
330
58B
100
AcDbEntity
  8
Sichtbare Kanten(TC_020513_DIN)
100
AcDbVertex
100
AcDb2dVertex
 10
203.2674606265614
 20
100.7141190383119
 30
0.0
  0
VERTEX
  5
5A5
330
58B
100
AcDbEntity
  8
Sichtbare Kanten(TC_020513_DIN)
100
AcDbVertex
100
AcDb2dVertex
 10
203.5781116904805
 20
100.7139414164705
 30
0.0
  0
SEQEND
  5
58E
330
58B
100
AcDbEntity
  8
Sichtbare Kanten(TC_020513_DIN)
  0
LINE
  5
5A6
330
37
100
AcDbEntity
  8
Sichtbare Kanten(TC_020513_DIN)
100
AcDbLine
 10
198.5805326620945
 20
100.8003131518649
 30
0.0
 11
199.0781115712726
 21
100.5130358347078
 31
0.0
  0
LINE
  5
5A7
330
37
100
AcDbEntity
  8
Sichtbare Kanten(TC_020513_DIN)
100
AcDbLine
 10
203.5781115712713
 20
100.5130358347078
 30
0.0
 11
199.0781115712726
 21
100.5130358347078
 31
0.0
  0
LINE
  5
5A8
330
37
100
AcDbEntity
  8
Sichtbare Kanten(TC_020513_DIN)
100
AcDbLine
 10
203.5781115712713
 20
100.5130358347078
 30
0.0
 11
211.5781115712713
 21
100.5130358347078
 31
0.0
  0
LINE
  5
5A9
330
37
100
AcDbEntity
  8
Sichtbare Kanten(TC_020513_DIN)
100
AcDbLine
 10
203.5781115712713
 20
100.0130358347078
 30
0.0
 11
211.5781115712713
 21
100.0130358347078
 31
0.0
  0
POLYLINE
  5
5AA
330
37
100
AcDbEntity
  8
Sichtbare Kanten(TC_020513_DIN)
100
AcDb2dPolyline
 66
     1
 10
0.0
 20
0.0
 30
0.0
 70
   128
  0
VERTEX
  5
5AB
330
5AA
100
AcDbEntity
  8
Sichtbare Kanten(TC_020513_DIN)
100
AcDbVertex
100
AcDb2dVertex
 10
203.5781116904805
 20
99.79922350379656
 30
0.0
  0
VERTEX
  5
5AC
330
5AA
100
AcDbEntity
  8
Sichtbare Kanten(TC_020513_DIN)
100
AcDbVertex
100
AcDb2dVertex
 10
203.2665003957341
 20
99.79906733962724
 30
0.0
  0
VERTEX
  5
5AE
330
5AA
100
AcDbEntity
  8
Sichtbare Kanten(TC_020513_DIN)
100
AcDbVertex
100
AcDb2dVertex
 10
202.9504265012334
 20
99.79859765502641
 30
0.0
  0
VERTEX
  5
5AF
330
5AA
100
AcDbEntity
  8
Sichtbare Kanten(TC_020513_DIN)
100
AcDbVertex
100
AcDb2dVertex
 10
202.6325024785588
 20
99.79781325790117
 30
0.0
  0
VERTEX
  5
5B0
330
5AA
100
AcDbEntity
  8
Sichtbare Kanten(TC_020513_DIN)
100
AcDbVertex
100
AcDb2dVertex
 10
202.3153413953374
 20
99.79671057197283
 30
0.0
  0
VERTEX
  5
5B1
330
5AA
100
AcDbEntity
  8
Sichtbare Kanten(TC_020513_DIN)
100
AcDbVertex
100
AcDb2dVertex
 10
202.0015539350103
 20
99.79528959724138
 30
0.0
  0
VERTEX
  5
5B2
330
5AA
100
AcDbEntity
  8
Sichtbare Kanten(TC_020513_DIN)
100
AcDbVertex
100
AcDb2dVertex
 10
201.6937543572973
 20
99.79354794952104
 30
0.0
  0
VERTEX
  5
5B3
330
5AA
100
AcDbEntity
  8
Sichtbare Kanten(TC_020513_DIN)
100
AcDbVertex
100
AcDb2dVertex
 10
201.3943983735632
 20
99.7914903971834
 30
0.0
  0
VERTEX
  5
5B4
330
5AA
100
AcDbEntity
  8
Sichtbare Kanten(TC_020513_DIN)
100
AcDbVertex
100
AcDb2dVertex
 10
201.105390948255
 20
99.78914197417925
 30
0.0
  0
VERTEX
  5
5B5
330
5AA
100
AcDbEntity
  8
Sichtbare Kanten(TC_020513_DIN)
100
AcDbVertex
100
AcDb2dVertex
 10
200.8285178365302
 20
99.78653367492388
 30
0.0
  0
VERTEX
  5
5B6
330
5AA
100
AcDbEntity
  8
Sichtbare Kanten(TC_020513_DIN)
100
AcDbVertex
100
AcDb2dVertex
 10
200.5655636014533
 20
99.78369649383257
 30
0.0
  0
VERTEX
  5
5B7
330
5AA
100
AcDbEntity
  8
Sichtbare Kanten(TC_020513_DIN)
100
AcDbVertex
100
AcDb2dVertex
 10
200.318313998182
 20
99.78065784904192
 30
0.0
  0
VERTEX
  5
5B8
330
5AA
100
AcDbEntity
  8
Sichtbare Kanten(TC_020513_DIN)
100
AcDbVertex
100
AcDb2dVertex
 10
200.088514250715
 20
99.77744992706011
 30
0.0
  0
VERTEX
  5
5B9
330
5AA
100
AcDbEntity
  8
Sichtbare Kanten(TC_020513_DIN)
100
AcDbVertex
100
AcDb2dVertex
 10
199.872152966459
 20
99.77401550742815
 30
0.0
  0
VERTEX
  5
5BA
330
5AA
100
AcDbEntity
  8
Sichtbare Kanten(TC_020513_DIN)
100
AcDbVertex
100
AcDb2dVertex
 10
199.6669568242625
 20
99.77032001945207
 30
0.0
  0
VERTEX
  5
5BB
330
5AA
100
AcDbEntity
  8
Sichtbare Kanten(TC_020513_DIN)
100
AcDbVertex
100
AcDb2dVertex
 10
199.4748522462444
 20
99.76638968917558
 30
0.0
  0
VERTEX
  5
5BC
330
5AA
100
AcDbEntity
  8
Sichtbare Kanten(TC_020513_DIN)
100
AcDbVertex
100
AcDb2dVertex
 10
199.2977644624309
 20
99.76225193473528
 30
0.0
  0
VERTEX
  5
5BD
330
5AA
100
AcDbEntity
  8
Sichtbare Kanten(TC_020513_DIN)
100
AcDbVertex
100
AcDb2dVertex
 10
199.1376175107556
 20
99.75793417426775
 30
0.0
  0
VERTEX
  5
5BE
330
5AA
100
AcDbEntity
  8
Sichtbare Kanten(TC_020513_DIN)
100
AcDbVertex
100
AcDb2dVertex
 10
198.9963378133375
 20
99.7534614417238
 30
0.0
  0
VERTEX
  5
5BF
330
5AA
100
AcDbEntity
  8
Sichtbare Kanten(TC_020513_DIN)
100
AcDbVertex
100
AcDb2dVertex
 10
198.8754750909407
 20
99.74886353942583
 30
0.0
  0
VERTEX
  5
5C0
330
5AA
100
AcDbEntity
  8
Sichtbare Kanten(TC_020513_DIN)
100
AcDbVertex
100
AcDb2dVertex
 10
198.775260609587
 20
99.74417861434648
 30
0.0
  0
VERTEX
  5
5C1
330
5AA
100
AcDbEntity
  8
Sichtbare Kanten(TC_020513_DIN)
100
AcDbVertex
100
AcDb2dVertex
 10
198.6956395330033
 20
99.73944362136553
 30
0.0
  0
VERTEX
  5
5C2
330
5AA
100
AcDbEntity
  8
Sichtbare Kanten(TC_020513_DIN)
100
AcDbVertex
100
AcDb2dVertex
 10
198.6365570249162
 20
99.73469670745561
 30
0.0
  0
VERTEX
  5
5C3
330
5AA
100
AcDbEntity
  8
Sichtbare Kanten(TC_020513_DIN)
100
AcDbVertex
100
AcDb2dVertex
 10
198.5979570569598
 20
99.72997840377519
 30
0.0
  0
VERTEX
  5
5C4
330
5AA
100
AcDbEntity
  8
Sichtbare Kanten(TC_020513_DIN)
100
AcDbVertex
100
AcDb2dVertex
 10
198.5797836007678
 20
99.72532685729692
 30
0.0
  0
SEQEND
  5
5AD
330
5AA
100
AcDbEntity
  8
Sichtbare Kanten(TC_020513_DIN)
  0
LINE
  5
5C5
330
37
100
AcDbEntity
  8
Sichtbare Kanten(TC_020513_DIN)
100
AcDbLine
 10
203.5781115712713
 20
100.0130358347078
 30
0.0
 11
199.0781115712726
 21
100.0130358347078
 31
0.0
  0
LINE
  5
5C6
330
37
100
AcDbEntity
  8
Sichtbare Kanten(TC_020513_DIN)
100
AcDbLine
 10
199.0781115712726
 20
100.0130358347078
 30
0.0
 11
198.5797840993557
 21
99.72532633465199
 31
0.0
  0
LINE
  5
5C7
330
37
100
AcDbEntity
  8
Sichtbare Kanten(TC_020513_DIN)
100
AcDbLine
 10
198.5781115712726
 20
99.72436070011298
 30
0.0
 11
198.5797840993557
 21
99.72532633465199
 31
0.0
  0
LINE
  5
5C8
330
37
100
AcDbEntity
  8
Sichtbare Kanten(TC_020513_DIN)
100
AcDbLine
 10
199.0781115712726
 20
100.5130358347078
 30
0.0
 11
199.0781115712726
 21
100.0130358347078
 31
0.0
  0
LINE
  5
5C9
330
37
100
AcDbEntity
  8
Sichtbare Kanten(TC_020513_DIN)
100
AcDbLine
 10
227.5781115712727
 20
102.8011139488649
 30
0.0
 11
227.5781115712727
 21
103.7231666592377
 31
0.0
  0
LINE
  5
5CA
330
37
100
AcDbEntity
  8
Sichtbare Kanten(TC_020513_DIN)
100
AcDbLine
 10
227.5781115712727
 20
104.8005169284273
 30
0.0
 11
227.5781115712728
 21
114.2636328551454
 31
0.0
  0
LINE
  5
5CB
330
37
100
AcDbEntity
  8
Sichtbare Kanten(TC_020513_DIN)
100
AcDbLine
 10
227.5781115712727
 20
100.8017109693026
 30
0.0
 11
227.5781115712727
 21
101.7237636796753
 31
0.0
  0
POLYLINE
  5
5CC
330
37
100
AcDbEntity
  8
Sichtbare Kanten(TC_020513_DIN)
100
AcDb2dPolyline
 66
     1
 10
0.0
 20
0.0
 30
0.0
 70
   128
  0
VERTEX
  5
5CD
330
5CC
100
AcDbEntity
  8
Sichtbare Kanten(TC_020513_DIN)
100
AcDbVertex
100
AcDb2dVertex
 10
222.5781114520619
 20
98.77017672988603
 30
0.0
  0
VERTEX
  5
5CE
330
5CC
100
AcDbEntity
  8
Sichtbare Kanten(TC_020513_DIN)
100
AcDbVertex
100
AcDb2dVertex
 10
222.8927387418339
 20
98.77024110290239
 30
0.0
  0
VERTEX
  5
5D0
330
5CC
100
AcDbEntity
  8
Sichtbare Kanten(TC_020513_DIN)
100
AcDbVertex
100
AcDb2dVertex
 10
223.2117451848576
 20
98.77043422195146
 30
0.0
  0
VERTEX
  5
5D1
330
5CC
100
AcDbEntity
  8
Sichtbare Kanten(TC_020513_DIN)
100
AcDbVertex
100
AcDb2dVertex
 10
223.5324956597875
 20
98.77075847121904
 30
0.0
  0
VERTEX
  5
5D2
330
5CC
100
AcDbEntity
  8
Sichtbare Kanten(TC_020513_DIN)
100
AcDbVertex
100
AcDb2dVertex
 10
223.8523544492314
 20
98.77121385070513
 30
0.0
  0
VERTEX
  5
5D3
330
5CC
100
AcDbEntity
  8
Sichtbare Kanten(TC_020513_DIN)
100
AcDbVertex
100
AcDb2dVertex
 10
224.1686834516118
 20
98.77180274459551
 30
0.0
  0
VERTEX
  5
5D4
330
5CC
100
AcDbEntity
  8
Sichtbare Kanten(TC_020513_DIN)
100
AcDbVertex
100
AcDb2dVertex
 10
224.4788469495367
 20
98.77252396079729
 30
0.0
  0
VERTEX
  5
5D5
330
5CC
100
AcDbEntity
  8
Sichtbare Kanten(TC_020513_DIN)
100
AcDbVertex
100
AcDb2dVertex
 10
224.7803594293188
 20
98.77337988349626
 30
0.0
  0
VERTEX
  5
5D6
330
5CC
100
AcDbEntity
  8
Sichtbare Kanten(TC_020513_DIN)
100
AcDbVertex
100
AcDb2dVertex
 10
225.071295660932
 20
98.77435859176348
 30
0.0
  0
VERTEX
  5
5D7
330
5CC
100
AcDbEntity
  8
Sichtbare Kanten(TC_020513_DIN)
100
AcDbVertex
100
AcDb2dVertex
 10
225.3498686971259
 20
98.77544935676286
 30
0.0
  0
VERTEX
  5
5D8
330
5CC
100
AcDbEntity
  8
Sichtbare Kanten(TC_020513_DIN)
100
AcDbVertex
100
AcDb2dVertex
 10
225.6142880143714
 20
98.77664144965837
 30
0.0
  0
VERTEX
  5
5D9
330
5CC
100
AcDbEntity
  8
Sichtbare Kanten(TC_020513_DIN)
100
AcDbVertex
100
AcDb2dVertex
 10
225.8627618970467
 20
98.77792294952104
 30
0.0
  0
VERTEX
  5
5DA
330
5CC
100
AcDbEntity
  8
Sichtbare Kanten(TC_020513_DIN)
100
AcDbVertex
100
AcDb2dVertex
 10
226.0935105504586
 20
98.77928193542192
 30
0.0
  0
VERTEX
  5
5DB
330
5CC
100
AcDbEntity
  8
Sichtbare Kanten(TC_020513_DIN)
100
AcDbVertex
100
AcDb2dVertex
 10
226.3100518407419
 20
98.78074105712602
 30
0.0
  0
VERTEX
  5
5DC
330
5CC
100
AcDbEntity
  8
Sichtbare Kanten(TC_020513_DIN)
100
AcDbVertex
100
AcDb2dVertex
 10
226.5150667848185
 20
98.78231819602678
 30
0.0
  0
VERTEX
  5
5DD
330
5CC
100
AcDbEntity
  8
Sichtbare Kanten(TC_020513_DIN)
100
AcDbVertex
100
AcDb2dVertex
 10
226.7066122712688
 20
98.78400262328813
 30
0.0
  0
VERTEX
  5
5DE
330
5CC
100
AcDbEntity
  8
Sichtbare Kanten(TC_020513_DIN)
100
AcDbVertex
100
AcDb2dVertex
 10
226.8827475728588
 20
98.78578718635271
 30
0.0
  0
VERTEX
  5
5DF
330
5CC
100
AcDbEntity
  8
Sichtbare Kanten(TC_020513_DIN)
100
AcDbVertex
100
AcDb2dVertex
 10
227.0415283860761
 20
98.78765758010576
 30
0.0
  0
VERTEX
  5
5E0
330
5CC
100
AcDbEntity
  8
Sichtbare Kanten(TC_020513_DIN)
100
AcDbVertex
100
AcDb2dVertex
 10
227.1810115995009
 20
98.78960665198992
 30
0.0
  0
VERTEX
  5
5E1
330
5CC
100
AcDbEntity
  8
Sichtbare Kanten(TC_020513_DIN)
100
AcDbVertex
100
AcDb2dVertex
 10
227.2996153058608
 20
98.79162128898332
 30
0.0
  0
VERTEX
  5
5E2
330
5CC
100
AcDbEntity
  8
Sichtbare Kanten(TC_020513_DIN)
100
AcDbVertex
100
AcDb2dVertex
 10
227.3971082391342
 20
98.79368718597124
 30
0.0
  0
VERTEX
  5
5E3
330
5CC
100
AcDbEntity
  8
Sichtbare Kanten(TC_020513_DIN)
100
AcDbVertex
100
AcDb2dVertex
 10
227.4735798062882
 20
98.79578646156023
 30
0.0
  0
VERTEX
  5
5E4
330
5CC
100
AcDbEntity
  8
Sichtbare Kanten(TC_020513_DIN)
100
AcDbVertex
100
AcDb2dVertex
 10
227.5291229905687
 20
98.79790242644975
 30
0.0
  0
VERTEX
  5
5E5
330
5CC
100
AcDbEntity
  8
Sichtbare Kanten(TC_020513_DIN)
100
AcDbVertex
100
AcDb2dVertex
 10
227.563824814757
 20
98.80001719924639
 30
0.0
  0
VERTEX
  5
5E6
330
5CC
100
AcDbEntity
  8
Sichtbare Kanten(TC_020513_DIN)
100
AcDbVertex
100
AcDb2dVertex
 10
227.5777758779133
 20
98.80211409064958
 30
0.0
  0
SEQEND
  5
5CF
330
5CC
100
AcDbEntity
  8
Sichtbare Kanten(TC_020513_DIN)
  0
LINE
  5
5E7
330
37
100
AcDbEntity
  8
Sichtbare Kanten(TC_020513_DIN)
100
AcDbLine
 10
227.5781115712727
 20
98.80230798974025
 30
0.0
 11
227.5777762079329
 21
98.80211436762573
 31
0.0
  0
LINE
  5
5E8
330
37
100
AcDbEntity
  8
Sichtbare Kanten(TC_020513_DIN)
100
AcDbLine
 10
227.5781115712727
 20
98.80230798974025
 30
0.0
 11
227.5781115712727
 21
99.72436070011298
 31
0.0
  0
LINE
  5
5E9
330
37
100
AcDbEntity
  8
Sichtbare Kanten(TC_020513_DIN)
100
AcDbLine
 10
198.5781115712727
 20
103.7231666592377
 30
0.0
 11
198.5781115712727
 21
102.8011139488649
 31
0.0
  0
LINE
  5
5EA
330
37
100
AcDbEntity
  8
Sichtbare Kanten(TC_020513_DIN)
100
AcDbLine
 10
202.8680216863891
 20
114.2636328551454
 30
0.0
 11
203.5781115712713
 21
114.2636328551454
 31
0.0
  0
LINE
  5
5EB
330
37
100
AcDbEntity
  8
Sichtbare Kanten(TC_020513_DIN)
100
AcDbLine
 10
198.5781115712727
 20
114.2636328551454
 30
0.0
 11
198.5781115712727
 21
104.8005169284273
 31
0.0
  0
LINE
  5
5EC
330
37
100
AcDbEntity
  8
Sichtbare Kanten(TC_020513_DIN)
100
AcDbLine
 10
198.5781115712727
 20
101.7237636796753
 30
0.0
 11
198.5781115712727
 21
100.8017109693026
 31
0.0
  0
LINE
  5
5ED
330
37
100
AcDbEntity
  8
Sichtbare Kanten(TC_020513_DIN)
100
AcDbLine
 10
198.5781115712726
 20
99.72436070011298
 30
0.0
 11
198.5781115712726
 21
98.80230798974025
 31
0.0
  0
LINE
  5
5EE
330
37
100
AcDbEntity
  8
Sichtbare Kanten(TC_020513_DIN)
100
AcDbLine
 10
198.5784469346125
 20
98.80211436762573
 30
0.0
 11
198.5781115712727
 21
98.80230798974025
 31
0.0
  0
POLYLINE
  5
5EF
330
37
100
AcDbEntity
  8
Sichtbare Kanten(TC_020513_DIN)
100
AcDb2dPolyline
 66
     1
 10
0.0
 20
0.0
 30
0.0
 70
   128
  0
VERTEX
  5
5F0
330
5EF
100
AcDbEntity
  8
Sichtbare Kanten(TC_020513_DIN)
100
AcDbVertex
100
AcDb2dVertex
 10
198.578447264632
 20
98.80211409064958
 30
0.0
  0
VERTEX
  5
5F1
330
5EF
100
AcDbEntity
  8
Sichtbare Kanten(TC_020513_DIN)
100
AcDbVertex
100
AcDb2dVertex
 10
198.592398327788
 20
98.80001719924639
 30
0.0
  0
VERTEX
  5
5F3
330
5EF
100
AcDbEntity
  8
Sichtbare Kanten(TC_020513_DIN)
100
AcDbVertex
100
AcDb2dVertex
 10
198.6271001519762
 20
98.79790242644975
 30
0.0
  0
VERTEX
  5
5F4
330
5EF
100
AcDbEntity
  8
Sichtbare Kanten(TC_020513_DIN)
100
AcDbVertex
100
AcDb2dVertex
 10
198.6826433362565
 20
98.79578646156023
 30
0.0
  0
VERTEX
  5
5F5
330
5EF
100
AcDbEntity
  8
Sichtbare Kanten(TC_020513_DIN)
100
AcDbVertex
100
AcDb2dVertex
 10
198.7591149034103
 20
98.79368718597124
 30
0.0
  0
VERTEX
  5
5F6
330
5EF
100
AcDbEntity
  8
Sichtbare Kanten(TC_020513_DIN)
100
AcDbVertex
100
AcDb2dVertex
 10
198.8566078366836
 20
98.79162128898332
 30
0.0
  0
VERTEX
  5
5F7
330
5EF
100
AcDbEntity
  8
Sichtbare Kanten(TC_020513_DIN)
100
AcDbVertex
100
AcDb2dVertex
 10
198.9752115430433
 20
98.78960665198992
 30
0.0
  0
VERTEX
  5
5F8
330
5EF
100
AcDbEntity
  8
Sichtbare Kanten(TC_020513_DIN)
100
AcDbVertex
100
AcDb2dVertex
 10
199.1146947564679
 20
98.78765758010576
 30
0.0
  0
VERTEX
  5
5F9
330
5EF
100
AcDbEntity
  8
Sichtbare Kanten(TC_020513_DIN)
100
AcDbVertex
100
AcDb2dVertex
 10
199.273475569685
 20
98.78578718635271
 30
0.0
  0
VERTEX
  5
5FA
330
5EF
100
AcDbEntity
  8
Sichtbare Kanten(TC_020513_DIN)
100
AcDbVertex
100
AcDb2dVertex
 10
199.4496108712749
 20
98.78400262328813
 30
0.0
  0
VERTEX
  5
5FB
330
5EF
100
AcDbEntity
  8
Sichtbare Kanten(TC_020513_DIN)
100
AcDbVertex
100
AcDb2dVertex
 10
199.641156357725
 20
98.78231819602678
 30
0.0
  0
VERTEX
  5
5FC
330
5EF
100
AcDbEntity
  8
Sichtbare Kanten(TC_020513_DIN)
100
AcDbVertex
100
AcDb2dVertex
 10
199.8461713018014
 20
98.78074105712602
 30
0.0
  0
VERTEX
  5
5FD
330
5EF
100
AcDbEntity
  8
Sichtbare Kanten(TC_020513_DIN)
100
AcDbVertex
100
AcDb2dVertex
 10
200.0627125920846
 20
98.77928193542192
 30
0.0
  0
VERTEX
  5
5FE
330
5EF
100
AcDbEntity
  8
Sichtbare Kanten(TC_020513_DIN)
100
AcDbVertex
100
AcDb2dVertex
 10
200.2934612454964
 20
98.77792294952104
 30
0.0
  0
VERTEX
  5
5FF
330
5EF
100
AcDbEntity
  8
Sichtbare Kanten(TC_020513_DIN)
100
AcDbVertex
100
AcDb2dVertex
 10
200.5419351281715
 20
98.77664144965837
 30
0.0
  0
VERTEX
  5
600
330
5EF
100
AcDbEntity
  8
Sichtbare Kanten(TC_020513_DIN)
100
AcDbVertex
100
AcDb2dVertex
 10
200.806354445417
 20
98.77544935676286
 30
0.0
  0
VERTEX
  5
601
330
5EF
100
AcDbEntity
  8
Sichtbare Kanten(TC_020513_DIN)
100
AcDbVertex
100
AcDb2dVertex
 10
201.0849274816107
 20
98.77435859176348
 30
0.0
  0
VERTEX
  5
602
330
5EF
100
AcDbEntity
  8
Sichtbare Kanten(TC_020513_DIN)
100
AcDbVertex
100
AcDb2dVertex
 10
201.3758637132239
 20
98.77337988349626
 30
0.0
  0
VERTEX
  5
603
330
5EF
100
AcDbEntity
  8
Sichtbare Kanten(TC_020513_DIN)
100
AcDbVertex
100
AcDb2dVertex
 10
201.6773761930059
 20
98.77252396079729
 30
0.0
  0
VERTEX
  5
604
330
5EF
100
AcDbEntity
  8
Sichtbare Kanten(TC_020513_DIN)
100
AcDbVertex
100
AcDb2dVertex
 10
201.9875396909307
 20
98.77180274459551
 30
0.0
  0
VERTEX
  5
605
330
5EF
100
AcDbEntity
  8
Sichtbare Kanten(TC_020513_DIN)
100
AcDbVertex
100
AcDb2dVertex
 10
202.303868693311
 20
98.77121385070513
 30
0.0
  0
VERTEX
  5
606
330
5EF
100
AcDbEntity
  8
Sichtbare Kanten(TC_020513_DIN)
100
AcDbVertex
100
AcDb2dVertex
 10
202.623727482755
 20
98.77075847121904
 30
0.0
  0
VERTEX
  5
607
330
5EF
100
AcDbEntity
  8
Sichtbare Kanten(TC_020513_DIN)
100
AcDbVertex
100
AcDb2dVertex
 10
202.9444779576848
 20
98.77043422195146
 30
0.0
  0
VERTEX
  5
608
330
5EF
100
AcDbEntity
  8
Sichtbare Kanten(TC_020513_DIN)
100
AcDbVertex
100
AcDb2dVertex
 10
203.2634844007084
 20
98.77024110290239
 30
0.0
  0
VERTEX
  5
609
330
5EF
100
AcDbEntity
  8
Sichtbare Kanten(TC_020513_DIN)
100
AcDbVertex
100
AcDb2dVertex
 10
203.5781116904805
 20
98.77017672988603
 30
0.0
  0
SEQEND
  5
5F2
330
5EF
100
AcDbEntity
  8
Sichtbare Kanten(TC_020513_DIN)
  0
LINE
  5
60A
330
37
100
AcDbEntity
  8
Sichtbare Kanten(TC_020513_DIN)
100
AcDbLine
 10
227.5780117539769
 20
97.7250153500932
 30
0.0
 11
227.5781115712726
 21
97.7249577205506
 31
0.0
  0
POLYLINE
  5
60B
330
37
100
AcDbEntity
  8
Sichtbare Kanten(TC_020513_DIN)
100
AcDb2dPolyline
 66
     1
 10
0.0
 20
0.0
 30
0.0
 70
   128
  0
VERTEX
  5
60C
330
60B
100
AcDbEntity
  8
Sichtbare Kanten(TC_020513_DIN)
100
AcDbVertex
100
AcDb2dVertex
 10
227.5780119123066
 20
97.72501524421404
 30
0.0
  0
VERTEX
  5
60D
330
60B
100
AcDbEntity
  8
Sichtbare Kanten(TC_020513_DIN)
100
AcDbVertex
100
AcDb2dVertex
 10
227.5656320275866
 20
97.72616442176531
 30
0.0
  0
VERTEX
  5
60F
330
60B
100
AcDbEntity
  8
Sichtbare Kanten(TC_020513_DIN)
100
AcDbVertex
100
AcDb2dVertex
 10
227.5323750199877
 20
97.72732313605974
 30
0.0
  0
VERTEX
  5
610
330
60B
100
AcDbEntity
  8
Sichtbare Kanten(TC_020513_DIN)
100
AcDbVertex
100
AcDb2dVertex
 10
227.4781383695207
 20
97.72848423453996
 30
0.0
  0
VERTEX
  5
611
330
60B
100
AcDbEntity
  8
Sichtbare Kanten(TC_020513_DIN)
100
AcDbVertex
100
AcDb2dVertex
 10
227.4028219403823
 20
97.72963698836992
 30
0.0
  0
VERTEX
  5
612
330
60B
100
AcDbEntity
  8
Sichtbare Kanten(TC_020513_DIN)
100
AcDbVertex
100
AcDb2dVertex
 10
227.3063220204909
 20
97.73077186080644
 30
0.0
  0
VERTEX
  5
613
330
60B
100
AcDbEntity
  8
Sichtbare Kanten(TC_020513_DIN)
100
AcDbVertex
100
AcDb2dVertex
 10
227.1885360898573
 20
97.73187931510637
 30
0.0
  0
VERTEX
  5
614
330
60B
100
AcDbEntity
  8
Sichtbare Kanten(TC_020513_DIN)
100
AcDbVertex
100
AcDb2dVertex
 10
227.0496966065961
 20
97.73295100661943
 30
0.0
  0
VERTEX
  5
615
330
60B
100
AcDbEntity
  8
Sichtbare Kanten(TC_020513_DIN)
100
AcDbVertex
100
AcDb2dVertex
 10
226.8913985910015
 20
97.73398097488115
 30
0.0
  0
VERTEX
  5
616
330
60B
100
AcDbEntity
  8
Sichtbare Kanten(TC_020513_DIN)
100
AcDbVertex
100
AcDb2dVertex
 10
226.7155934991436
 20
97.73496325942705
 30
0.0
  0
VERTEX
  5
617
330
60B
100
AcDbEntity
  8
Sichtbare Kanten(TC_020513_DIN)
100
AcDbVertex
100
AcDb2dVertex
 10
226.5242327870921
 20
97.73589070769975
 30
0.0
  0
VERTEX
  5
618
330
60B
100
AcDbEntity
  8
Sichtbare Kanten(TC_020513_DIN)
100
AcDbVertex
100
AcDb2dVertex
 10
226.3192643346384
 20
97.73675974342058
 30
0.0
  0
VERTEX
  5
619
330
60B
100
AcDbEntity
  8
Sichtbare Kanten(TC_020513_DIN)
100
AcDbVertex
100
AcDb2dVertex
 10
226.1026407899453
 20
97.73756440612505
 30
0.0
  0
VERTEX
  5
61A
330
60B
100
AcDbEntity
  8
Sichtbare Kanten(TC_020513_DIN)
100
AcDbVertex
100
AcDb2dVertex
 10
225.8715368928505
 20
97.73831423255632
 30
0.0
  0
VERTEX
  5
61B
330
60B
100
AcDbEntity
  8
Sichtbare Kanten(TC_020513_DIN)
100
AcDbVertex
100
AcDb2dVertex
 10
225.6226159753395
 20
97.73902114364336
 30
0.0
  0
VERTEX
  5
61C
330
60B
100
AcDbEntity
  8
Sichtbare Kanten(TC_020513_DIN)
100
AcDbVertex
100
AcDb2dVertex
 10
225.3576685609412
 20
97.73967798682878
 30
0.0
  0
VERTEX
  5
61D
330
60B
100
AcDbEntity
  8
Sichtbare Kanten(TC_020513_DIN)
100
AcDbVertex
100
AcDb2dVertex
 10
225.0784851731848
 20
97.74028118583391
 30
0.0
  0
VERTEX
  5
61E
330
60B
100
AcDbEntity
  8
Sichtbare Kanten(TC_020513_DIN)
100
AcDbVertex
100
AcDb2dVertex
 10
224.786859911878
 20
97.74082120391557
 30
0.0
  0
VERTEX
  5
61F
330
60B
100
AcDbEntity
  8
Sichtbare Kanten(TC_020513_DIN)
100
AcDbVertex
100
AcDb2dVertex
 10
224.484582108457
 20
97.7412932727022
 30
0.0
  0
VERTEX
  5
620
330
60B
100
AcDbEntity
  8
Sichtbare Kanten(TC_020513_DIN)
100
AcDbVertex
100
AcDb2dVertex
 10
224.1735829534124
 20
97.7416914317293
 30
0.0
  0
VERTEX
  5
621
330
60B
100
AcDbEntity
  8
Sichtbare Kanten(TC_020513_DIN)
100
AcDbVertex
100
AcDb2dVertex
 10
223.8563586892674
 20
97.74201687308977
 30
0.0
  0
VERTEX
  5
622
330
60B
100
AcDbEntity
  8
Sichtbare Kanten(TC_020513_DIN)
100
AcDbVertex
100
AcDb2dVertex
 10
223.5355557622502
 20
97.74226840469072
 30
0.0
  0
VERTEX
  5
623
330
60B
100
AcDbEntity
  8
Sichtbare Kanten(TC_020513_DIN)
100
AcDbVertex
100
AcDb2dVertex
 10
223.21381704231
 20
97.74244721862505
 30
0.0
  0
VERTEX
  5
624
330
60B
100
AcDbEntity
  8
Sichtbare Kanten(TC_020513_DIN)
100
AcDbVertex
100
AcDb2dVertex
 10
222.893787783582
 20
97.74255450698564
 30
0.0
  0
VERTEX
  5
625
330
60B
100
AcDbEntity
  8
Sichtbare Kanten(TC_020513_DIN)
100
AcDbVertex
100
AcDb2dVertex
 10
222.5781114520619
 20
97.74259026977251
 30
0.0
  0
SEQEND
  5
60E
330
60B
100
AcDbEntity
  8
Sichtbare Kanten(TC_020513_DIN)
  0
LINE
  5
626
330
37
100
AcDbEntity
  8
Sichtbare Kanten(TC_020513_DIN)
100
AcDbLine
 10
227.5781115712726
 20
86.26363285514543
 30
0.0
 11
227.5781115712726
 21
97.72495772055064
 31
0.0
  0
LINE
  5
627
330
37
100
AcDbEntity
  8
Sichtbare Kanten(TC_020513_DIN)
100
AcDbLine
 10
222.5781115712713
 20
114.2636328551454
 30
0.0
 11
223.2882014561535
 21
114.2636328551454
 31
0.0
  0
LINE
  5
628
330
37
100
AcDbEntity
  8
Sichtbare Kanten(TC_020513_DIN)
100
AcDbLine
 10
227.5781115712726
 20
86.26363285514543
 30
0.0
 11
222.5781115712711
 21
86.26363285514543
 31
0.0
  0
POLYLINE
  5
629
330
37
100
AcDbEntity
  8
Sichtbare Kanten(TC_020513_DIN)
100
AcDb2dPolyline
 66
     1
 10
0.0
 20
0.0
 30
0.0
 70
   128
  0
VERTEX
  5
62A
330
629
100
AcDbEntity
  8
Sichtbare Kanten(TC_020513_DIN)
100
AcDbVertex
100
AcDb2dVertex
 10
203.5781116904805
 20
97.74259026977251
 30
0.0
  0
VERTEX
  5
62B
330
629
100
AcDbEntity
  8
Sichtbare Kanten(TC_020513_DIN)
100
AcDbVertex
100
AcDb2dVertex
 10
203.2624353589604
 20
97.74255450698564
 30
0.0
  0
VERTEX
  5
62D
330
629
100
AcDbEntity
  8
Sichtbare Kanten(TC_020513_DIN)
100
AcDbVertex
100
AcDb2dVertex
 10
202.9424061002324
 20
97.74244721862505
 30
0.0
  0
VERTEX
  5
62E
330
629
100
AcDbEntity
  8
Sichtbare Kanten(TC_020513_DIN)
100
AcDbVertex
100
AcDb2dVertex
 10
202.6206673802922
 20
97.74226840469072
 30
0.0
  0
VERTEX
  5
62F
330
629
100
AcDbEntity
  8
Sichtbare Kanten(TC_020513_DIN)
100
AcDbVertex
100
AcDb2dVertex
 10
202.299864453275
 20
97.74201687308977
 30
0.0
  0
VERTEX
  5
630
330
629
100
AcDbEntity
  8
Sichtbare Kanten(TC_020513_DIN)
100
AcDbVertex
100
AcDb2dVertex
 10
201.9826401891302
 20
97.7416914317293
 30
0.0
  0
VERTEX
  5
631
330
629
100
AcDbEntity
  8
Sichtbare Kanten(TC_020513_DIN)
100
AcDbVertex
100
AcDb2dVertex
 10
201.6716410340857
 20
97.7412932727022
 30
0.0
  0
VERTEX
  5
632
330
629
100
AcDbEntity
  8
Sichtbare Kanten(TC_020513_DIN)
100
AcDbVertex
100
AcDb2dVertex
 10
201.3693632306646
 20
97.74082120391557
 30
0.0
  0
VERTEX
  5
633
330
629
100
AcDbEntity
  8
Sichtbare Kanten(TC_020513_DIN)
100
AcDbVertex
100
AcDb2dVertex
 10
201.0777379693579
 20
97.74028118583391
 30
0.0
  0
VERTEX
  5
634
330
629
100
AcDbEntity
  8
Sichtbare Kanten(TC_020513_DIN)
100
AcDbVertex
100
AcDb2dVertex
 10
200.7985545816016
 20
97.73967798682878
 30
0.0
  0
VERTEX
  5
635
330
629
100
AcDbEntity
  8
Sichtbare Kanten(TC_020513_DIN)
100
AcDbVertex
100
AcDb2dVertex
 10
200.5336071672035
 20
97.73902114364336
 30
0.0
  0
VERTEX
  5
636
330
629
100
AcDbEntity
  8
Sichtbare Kanten(TC_020513_DIN)
100
AcDbVertex
100
AcDb2dVertex
 10
200.2846862496926
 20
97.73831423255632
 30
0.0
  0
VERTEX
  5
637
330
629
100
AcDbEntity
  8
Sichtbare Kanten(TC_020513_DIN)
100
AcDbVertex
100
AcDb2dVertex
 10
200.0535823525979
 20
97.73756440612505
 30
0.0
  0
VERTEX
  5
638
330
629
100
AcDbEntity
  8
Sichtbare Kanten(TC_020513_DIN)
100
AcDbVertex
100
AcDb2dVertex
 10
199.8369588079049
 20
97.73675974342058
 30
0.0
  0
VERTEX
  5
639
330
629
100
AcDbEntity
  8
Sichtbare Kanten(TC_020513_DIN)
100
AcDbVertex
100
AcDb2dVertex
 10
199.6319903554514
 20
97.73589070769975
 30
0.0
  0
VERTEX
  5
63A
330
629
100
AcDbEntity
  8
Sichtbare Kanten(TC_020513_DIN)
100
AcDbVertex
100
AcDb2dVertex
 10
199.4406296434001
 20
97.73496325942705
 30
0.0
  0
VERTEX
  5
63B
330
629
100
AcDbEntity
  8
Sichtbare Kanten(TC_020513_DIN)
100
AcDbVertex
100
AcDb2dVertex
 10
199.2648245515423
 20
97.73398097488115
 30
0.0
  0
VERTEX
  5
63C
330
629
100
AcDbEntity
  8
Sichtbare Kanten(TC_020513_DIN)
100
AcDbVertex
100
AcDb2dVertex
 10
199.1065265359478
 20
97.73295100661943
 30
0.0
  0
VERTEX
  5
63D
330
629
100
AcDbEntity
  8
Sichtbare Kanten(TC_020513_DIN)
100
AcDbVertex
100
AcDb2dVertex
 10
198.9676870526869
 20
97.73187931510637
 30
0.0
  0
VERTEX
  5
63E
330
629
100
AcDbEntity
  8
Sichtbare Kanten(TC_020513_DIN)
100
AcDbVertex
100
AcDb2dVertex
 10
198.8499011220534
 20
97.73077186080644
 30
0.0
  0
VERTEX
  5
63F
330
629
100
AcDbEntity
  8
Sichtbare Kanten(TC_020513_DIN)
100
AcDbVertex
100
AcDb2dVertex
 10
198.7534012021621
 20
97.72963698836992
 30
0.0
  0
VERTEX
  5
640
330
629
100
AcDbEntity
  8
Sichtbare Kanten(TC_020513_DIN)
100
AcDbVertex
100
AcDb2dVertex
 10
198.678084773024
 20
97.72848423453996
 30
0.0
  0
VERTEX
  5
641
330
629
100
AcDbEntity
  8
Sichtbare Kanten(TC_020513_DIN)
100
AcDbVertex
100
AcDb2dVertex
 10
198.6238481225572
 20
97.72732313605974
 30
0.0
  0
VERTEX
  5
642
330
629
100
AcDbEntity
  8
Sichtbare Kanten(TC_020513_DIN)
100
AcDbVertex
100
AcDb2dVertex
 10
198.5905911149584
 20
97.72616442176531
 30
0.0
  0
VERTEX
  5
643
330
629
100
AcDbEntity
  8
Sichtbare Kanten(TC_020513_DIN)
100
AcDbVertex
100
AcDb2dVertex
 10
198.5782112302387
 20
97.72501524421404
 30
0.0
  0
SEQEND
  5
62C
330
629
100
AcDbEntity
  8
Sichtbare Kanten(TC_020513_DIN)
  0
LINE
  5
644
330
37
100
AcDbEntity
  8
Sichtbare Kanten(TC_020513_DIN)
100
AcDbLine
 10
198.5781115712726
 20
97.7249577205506
 30
0.0
 11
198.5782113885684
 21
97.7250153500932
 31
0.0
  0
LINE
  5
645
330
37
100
AcDbEntity
  8
Sichtbare Kanten(TC_020513_DIN)
100
AcDbLine
 10
203.5781115712711
 20
86.26363285514543
 30
0.0
 11
198.5781115712726
 21
86.26363285514543
 31
0.0
  0
LINE
  5
646
330
37
100
AcDbEntity
  8
Sichtbare Kanten(TC_020513_DIN)
100
AcDbLine
 10
198.5781115712726
 20
97.72495772055064
 30
0.0
 11
198.5781115712726
 21
86.26363285514543
 31
0.0
  0
LINE
  5
647
330
37
100
AcDbEntity
  8
Sichtbare Kanten(TC_020513_DIN)
100
AcDbLine
 10
222.5781115712713
 20
114.2636328551454
 30
0.0
 11
203.5781115712713
 21
114.2636328551454
 31
0.0
  0
LINE
  5
648
330
37
100
AcDbEntity
  8
Sichtbare Kanten(TC_020513_DIN)
100
AcDbLine
 10
203.5781115712711
 20
98.77017651690966
 30
0.0
 11
211.5781115712711
 21
98.77017651690966
 31
0.0
  0
LINE
  5
649
330
37
100
AcDbEntity
  8
Sichtbare Kanten(TC_020513_DIN)
100
AcDbLine
 10
211.5781115712711
 20
98.77017651690966
 30
0.0
 11
211.5781115712711
 21
97.74258980444521
 31
0.0
  0
LINE
  5
64A
330
37
100
AcDbEntity
  8
Sichtbare Kanten(TC_020513_DIN)
100
AcDbLine
 10
211.5781115712711
 20
97.74258980444521
 30
0.0
 11
203.5781115712711
 21
97.74258980444521
 31
0.0
  0
LINE
  5
64B
330
37
100
AcDbEntity
  8
Sichtbare Kanten(TC_020513_DIN)
100
AcDbLine
 10
222.5781115712711
 20
86.26363285514543
 30
0.0
 11
203.5781115712711
 21
86.26363285514543
 31
0.0
  0
LINE
  5
64C
330
37
100
AcDbEntity
  8
Sichtbare Kanten(TC_020513_DIN)
100
AcDbLine
 10
222.5781115712712
 20
97.74258980444521
 30
0.0
 11
214.5781115712712
 21
97.74258980444521
 31
0.0
  0
LINE
  5
64D
330
37
100
AcDbEntity
  8
Sichtbare Kanten(TC_020513_DIN)
100
AcDbLine
 10
214.5781115712712
 20
97.74258980444521
 30
0.0
 11
214.5781115712712
 21
98.77017651690966
 31
0.0
  0
LINE
  5
64E
330
37
100
AcDbEntity
  8
Sichtbare Kanten(TC_020513_DIN)
100
AcDbLine
 10
214.5781115712712
 20
98.77017651690966
 30
0.0
 11
222.5781115712712
 21
98.77017651690966
 31
0.0
  0
LINE
  5
64F
330
37
100
AcDbEntity
  8
Sichtbare Kanten(TC_020513_DIN)
100
AcDbLine
 10
227.0781115712726
 20
98.01363285514543
 30
0.0
 11
227.5780117539769
 21
97.72501535009324
 31
0.0
  0
LINE
  5
650
330
37
100
AcDbEntity
  8
Sichtbare Kanten(TC_020513_DIN)
100
AcDbLine
 10
222.5781115712713
 20
98.01363285514543
 30
0.0
 11
227.0781115712726
 21
98.01363285514543
 31
0.0
  0
LINE
  5
651
330
37
100
AcDbEntity
  8
Sichtbare Kanten(TC_020513_DIN)
100
AcDbLine
 10
222.5781115712713
 20
98.01363285514543
 30
0.0
 11
214.5781115712714
 21
98.01363285514543
 31
0.0
  0
LINE
  5
652
330
37
100
AcDbEntity
  8
Sichtbare Kanten(TC_020513_DIN)
100
AcDbLine
 10
222.5781115712713
 20
98.51363285514544
 30
0.0
 11
214.5781115712714
 21
98.51363285514544
 31
0.0
  0
LINE
  5
653
330
37
100
AcDbEntity
  8
Sichtbare Kanten(TC_020513_DIN)
100
AcDbLine
 10
227.0781115712726
 20
98.51363285514544
 30
0.0
 11
227.0781115712726
 21
98.01363285514543
 31
0.0
  0
LINE
  5
654
330
37
100
AcDbEntity
  8
Sichtbare Kanten(TC_020513_DIN)
100
AcDbLine
 10
222.5781115712713
 20
98.51363285514544
 30
0.0
 11
227.0781115712726
 21
98.51363285514544
 31
0.0
  0
LINE
  5
655
330
37
100
AcDbEntity
  8
Sichtbare Kanten(TC_020513_DIN)
100
AcDbLine
 10
227.5777762079329
 20
98.80211436762571
 30
0.0
 11
227.0781115712726
 21
98.51363285514544
 31
0.0
  0
LINE
  5
656
330
37
100
AcDbEntity
  8
Sichtbare Kanten(TC_020513_DIN)
100
AcDbLine
 10
198.5784469346124
 20
98.80211436762571
 30
0.0
 11
199.0781115712727
 21
98.51363285514544
 31
0.0
  0
LINE
  5
657
330
37
100
AcDbEntity
  8
Sichtbare Kanten(TC_020513_DIN)
100
AcDbLine
 10
203.5781115712713
 20
98.51363285514544
 30
0.0
 11
199.0781115712727
 21
98.51363285514544
 31
0.0
  0
LINE
  5
658
330
37
100
AcDbEntity
  8
Sichtbare Kanten(TC_020513_DIN)
100
AcDbLine
 10
203.5781115712713
 20
98.01363285514543
 30
0.0
 11
211.5781115712713
 21
98.01363285514543
 31
0.0
  0
LINE
  5
659
330
37
100
AcDbEntity
  8
Sichtbare Kanten(TC_020513_DIN)
100
AcDbLine
 10
203.5781115712713
 20
98.51363285514544
 30
0.0
 11
211.5781115712713
 21
98.51363285514544
 31
0.0
  0
LINE
  5
65A
330
37
100
AcDbEntity
  8
Sichtbare Kanten(TC_020513_DIN)
100
AcDbLine
 10
199.0781115712727
 20
98.51363285514544
 30
0.0
 11
199.0781115712727
 21
98.01363285514543
 31
0.0
  0
LINE
  5
65B
330
37
100
AcDbEntity
  8
Sichtbare Kanten(TC_020513_DIN)
100
AcDbLine
 10
203.5781115712713
 20
98.01363285514543
 30
0.0
 11
199.0781115712727
 21
98.01363285514543
 31
0.0
  0
LINE
  5
65C
330
37
100
AcDbEntity
  8
Sichtbare Kanten(TC_020513_DIN)
100
AcDbLine
 10
199.0781115712727
 20
98.01363285514543
 30
0.0
 11
198.5782113885684
 21
97.72501535009324
 31
0.0
  0
LINE
  5
65D
330
37
100
AcDbEntity
  8
Sichtbare Kanten(TC_020513_DIN)
100
AcDbLine
 10
197.0781115712713
 20
114.2636328551454
 30
0.0
 11
202.8680216863891
 21
114.2636328551454
 31
0.0
  0
LINE
  5
65E
330
37
100
AcDbEntity
  8
Sichtbare Kanten(TC_020513_DIN)
100
AcDbLine
 10
223.2882014561535
 20
114.2636328551454
 30
0.0
 11
229.0781115712713
 21
114.2636328551454
 31
0.0
  0
LINE
  5
65F
330
37
100
AcDbEntity
  8
Sichtbare Kanten(TC_020513_DIN)
100
AcDbLine
 10
227.5781115712726
 20
84.25363285514544
 30
0.0
 11
227.5781115712726
 21
86.25363285514543
 31
0.0
  0
LINE
  5
660
330
37
100
AcDbEntity
  8
Sichtbare Kanten(TC_020513_DIN)
100
AcDbLine
 10
222.5781115712711
 20
86.25363285514543
 30
0.0
 11
227.5781115712726
 21
86.25363285514543
 31
0.0
  0
LINE
  5
661
330
37
100
AcDbEntity
  8
Sichtbare Kanten(TC_020513_DIN)
100
AcDbLine
 10
222.5781115712711
 20
84.25363285514544
 30
0.0
 11
227.5781115712726
 21
84.25363285514544
 31
0.0
  0
LINE
  5
662
330
37
100
AcDbEntity
  8
Sichtbare Kanten(TC_020513_DIN)
100
AcDbLine
 10
222.5781115712711
 20
86.25363285514543
 30
0.0
 11
203.5781115712711
 21
86.25363285514543
 31
0.0
  0
LINE
  5
663
330
37
100
AcDbEntity
  8
Sichtbare Kanten(TC_020513_DIN)
100
AcDbLine
 10
222.5781115712711
 20
84.25363285514544
 30
0.0
 11
203.5781115712711
 21
84.25363285514544
 31
0.0
  0
LINE
  5
664
330
37
100
AcDbEntity
  8
Sichtbare Kanten(TC_020513_DIN)
100
AcDbLine
 10
198.5781115712725
 20
86.25363285514543
 30
0.0
 11
203.5781115712711
 21
86.25363285514543
 31
0.0
  0
LINE
  5
665
330
37
100
AcDbEntity
  8
Sichtbare Kanten(TC_020513_DIN)
100
AcDbLine
 10
198.5781115712726
 20
84.25363285514544
 30
0.0
 11
198.5781115712726
 21
86.25363285514543
 31
0.0
  0
LINE
  5
666
330
37
100
AcDbEntity
  8
Sichtbare Kanten(TC_020513_DIN)
100
AcDbLine
 10
198.5781115712725
 20
84.25363285514544
 30
0.0
 11
203.5781115712711
 21
84.25363285514544
 31
0.0
  0
LINE
  5
667
330
37
100
AcDbEntity
  8
Mittelpunktmarkierung(TC_020513_DIN)
  6
CHAIN
 48
8.889559745788574
100
AcDbLine
 10
217.0781115712698
 20
91.76363285514543
 30
0.0
 11
209.0781115712699
 21
91.76363285514543
 31
0.0
  0
LINE
  5
668
330
37
100
AcDbEntity
  8
Mittelpunktmarkierung(TC_020513_DIN)
  6
CHAIN
 48
8.889559745788574
100
AcDbLine
 10
213.0781115712699
 20
95.76363285514544
 30
0.0
 11
213.0781115712699
 21
87.76363285514543
 31
0.0
  0
LINE
  5
669
330
37
100
AcDbEntity
  8
Mittellinie(TC_020513_DIN)
  6
CHAIN
 48
10.42793369293213
100
AcDbLine
 10
48.50783623347325
 20
91.76363285514543
 30
0.0
 11
57.89225333819219
 21
91.76363285514543
 31
0.0
  0
LINE
  5
66A
330
37
100
AcDbEntity
  8
Mittellinie(TC_020513_DIN)
  6
CHAIN
 48
10.42793369293213
100
AcDbLine
 10
132.1234191287543
 20
91.76363285514543
 30
0.0
 11
141.5078362334732
 21
91.76363285514543
 31
0.0
  0
LINE
  5
66B
330
37
100
AcDbEntity
  8
Mittellinie(TC_020513_DIN)
  6
CHAIN
 48
23.99096870422363
100
AcDbLine
 10
95.00783623347325
 20
79.99773396579465
 30
0.0
 11
95.00783623347325
 21
156.9729828059655
 31
0.0
  0
LINE
  5
66C
330
37
100
AcDbEntity
  8
Mittellinie(TC_020513_DIN)
  6
CHAIN
 48
23.99096870422363
100
AcDbLine
 10
213.078111571273
 20
156.9729828059655
 30
0.0
 11
213.0781115712725
 21
79.99773396579465
 31
0.0
  0
LINE
  5
66D
330
37
100
AcDbEntity
  8
Mittellinie(TC_020513_DIN)
  6
CHAIN
 48
23.99096870422363
100
AcDbLine
 10
205.0781115712731
 20
115.7636328551454
 30
0.0
 11
205.0781115712731
 21
95.76363285514544
 31
0.0
  0
LINE
  5
66E
330
37
100
AcDbEntity
  8
Mittellinie(TC_020513_DIN)
  6
CHAIN
 48
23.99096870422363
100
AcDbLine
 10
221.0781115712731
 20
115.7636328551454
 30
0.0
 11
221.0781115712731
 21
95.76363285514544
 31
0.0
  0
LINE
  5
66F
330
37
100
AcDbEntity
  8
Mittellinie(TC_020513_DIN)
  6
CHAIN
 48
23.99096870422363
100
AcDbLine
 10
62.00783623347327
 20
115.7636328551454
 30
0.0
 11
62.00783623347327
 21
95.76363285514545
 31
0.0
  0
LINE
  5
670
330
37
100
AcDbEntity
  8
Mittellinie(TC_020513_DIN)
  6
CHAIN
 48
23.99096870422363
100
AcDbLine
 10
128.0078362334732
 20
115.7636328551454
 30
0.0
 11
128.0078362334732
 21
95.76363285514545
 31
0.0
  0
DIMENSION
  5
671
330
37
100
AcDbEntity
  8
Bemaßungen(TC_020513_DIN)
  6
Continuous
 62
     7
370
    25
100
AcDbDimension
  2
*D11
 10
128.0078362334732
 20
71.61602492240695
 30
0.0
 11
95.00783623347325
 21
71.61602492240695
 31
0.0
 70
   160
  1
<>
 42
66.0
  3
STANDARD-TC_020513_DIN
100
AcDbAlignedDimension
 13
62.00783623347327
 23
95.76363285514545
 33
0.0
 14
128.0078362334732
 24
95.76363285514545
 34
0.0
 50
180.0
100
AcDbRotatedDimension
1001
ACAD
1000
DSTYLE
1002
{
1070
   271
1070
     2
1070
   272
1070
     2
1070
    48
1040
0.0
1070
    47
1040
0.0
1002
}
  0
DIMENSION
  5
737
330
37
100
AcDbEntity
  8
Bemaßungen(TC_020513_DIN)
  6
Continuous
 62
     7
370
    25
100
AcDbDimension
  2
*D12
 10
134.7578362334732
 20
62.00769040545944
 30
0.0
 11
95.00783623347325
 21
62.00769040545944
 31
0.0
 70
   160
  1
<>
 42
79.5
  3
STANDARD-TC_020513_DIN
100
AcDbAlignedDimension
 13
55.25783623347326
 23
84.25363285514544
 33
0.0
 14
134.7578362334732
 24
84.25363285514544
 34
0.0
100
AcDbRotatedDimension
1001
ACAD
1000
DSTYLE
1002
{
1070
   271
1070
     2
1070
   272
1070
     2
1070
    48
1040
0.0
1070
    47
1040
0.0
1002
}
  0
DIMENSION
  5
7F7
330
37
100
AcDbEntity
  8
Bemaßungen(TC_020513_DIN)
  6
Continuous
 62
     7
370
    25
100
AcDbDimension
  2
*D13
 10
221.0781115712731
 20
71.61602492240695
 30
0.0
 11
213.0781115712731
 21
71.61602492240695
 31
0.0
 70
   160
  1
<>
 42
16.00000000000003
  3
STANDARD-TC_020513_DIN
100
AcDbAlignedDimension
 13
205.0781115712731
 23
95.76363285514544
 33
0.0
 14
221.0781115712731
 24
95.76363285514544
 34
0.0
 50
180.0
100
AcDbRotatedDimension
1001
ACAD
1000
DSTYLE
1002
{
1070
   271
1070
     2
1070
   272
1070
     2
1070
    48
1040
0.0
1070
    47
1040
0.0
1002
}
  0
DIMENSION
  5
8BC
330
37
100
AcDbEntity
  8
Bemaßungen(TC_020513_DIN)
  6
Continuous
 62
     7
370
    25
100
AcDbDimension
  2
*D14
 10
227.5781115712725
 20
62.00769040545933
 30
0.0
 11
213.0781115712724
 21
62.00769040545942
 31
0.0
 70
   160
  1
<>
 42
29.0
  3
STANDARD-TC_020513_DIN
100
AcDbAlignedDimension
 13
198.5781115712726
 23
86.26363285514544
 33
0.0
 14
227.5781115712726
 24
86.26363285514544
 34
0.0
 50
179.9999999999996
100
AcDbRotatedDimension
1001
ACAD
1000
DSTYLE
1002
{
1070
   271
1070
     2
1070
   272
1070
     2
1070
    48
1040
0.0
1070
    47
1040
0.0
1002
}
  0
DIMENSION
  5
981
330
37
100
AcDbEntity
  8
Bemaßungen(TC_020513_DIN)
  6
Continuous
 62
     7
370
    25
100
AcDbDimension
  2
*D15
 10
248.2403472306922
 20
84.25363285514542
 30
0.0
 11
248.2403472306922
 21
119.5036328551454
 31
0.0
 70
   160
  1
<>
 42
70.50000000000001
  3
STANDARD-TC_020513_DIN
100
AcDbAlignedDimension
 13
229.0781115712736
 23
154.7536328551454
 33
0.0
 14
222.5781115712711
 24
84.25363285514544
 34
0.0
 50
90.0
100
AcDbRotatedDimension
1001
ACAD
1000
DSTYLE
1002
{
1070
   271
1070
     2
1070
   272
1070
     2
1070
    48
1040
0.0
1070
    47
1040
0.0
1002
}
  0
LINE
  5
A41
330
37
100
AcDbEntity
  8
Mittellinie(TC_020513_DIN)
  6
CHAIN
 48
8.878447532653808
100
AcDbLine
 10
80.00783623347325
 20
157.2536328551454
 30
0.0
 11
80.00783623347325
 21
149.2636328551455
 31
0.0
  0
LINE
  5
A42
330
37
100
AcDbEntity
  8
Mittellinie(TC_020513_DIN)
  6
CHAIN
 48
8.878447532653808
100
AcDbLine
 10
110.0078362334732
 20
157.2536328551454
 30
0.0
 11
110.0078362334732
 21
149.2636328551455
 31
0.0
  0
DIMENSION
  5
A43
330
37
100
AcDbEntity
  8
Bemaßungen(TC_020513_DIN)
  6
Continuous
 62
     7
370
    25
100
AcDbDimension
  2
*D16
 10
110.0078362334732
 20
165.5920767395822
 30
0.0
 11
95.00783623347325
 21
165.5920767395822
 31
0.0
 70
   160
  1
<>
 42
30.0
  3
STANDARD-TC_020513_DIN
100
AcDbAlignedDimension
 13
80.00783623347325
 23
157.2536328551454
 33
0.0
 14
110.0078362334732
 24
157.2536328551454
 34
0.0
 50
180.0
100
AcDbRotatedDimension
1001
ACAD
1000
DSTYLE
1002
{
1070
   271
1070
     2
1070
   272
1070
     2
1070
    48
1040
0.0
1070
    47
1040
0.0
1002
}
  0
DIMENSION
  5
B08
330
37
100
AcDbEntity
  8
Bemaßungen(TC_020513_DIN)
  6
Continuous
 62
     7
370
    25
100
AcDbDimension
  2
*D17
 10
223.0781115712785
 20
165.5920767395822
 30
0.0
 11
213.0781115712784
 21
165.5920767395822
 31
0.0
 70
   160
  1
 M20
 42
20.0
  3
STANDARD-TC_020513_DIN
100
AcDbAlignedDimension
 13
203.0781115712784
 23
154.7536328551454
 33
0.0
 14
223.0781115712785
 24
154.7536328551454
 34
0.0
 50
180.0
100
AcDbRotatedDimension
1001
ACAD
1000
DSTYLE
1002
{
1070
   271
1070
     2
1070
   272
1070
     2
1070
    48
1040
0.0
1070
    47
1040
0.0
1002
}
  0
ENDSEC
  0
SECTION
  2
OBJECTS
  0
DICTIONARY
  5
C
330
0
100
AcDbDictionary
281
     1
  3
ACAD_COLOR
350
30
  3
ACAD_GROUP
350
D
  3
ACAD_LAYOUT
350
2F
  3
ACAD_MATERIAL
350
10
  3
ACAD_MLINESTYLE
350
2C
  3
ACAD_PLOTSETTINGS
350
2E
  3
ACAD_PLOTSTYLENAME
350
E
  3
ACAD_TABLESTYLE
350
31
  3
ACAD_VISUALSTYLE
350
14
  3
AcDbVariableDictionary
350
BCD
  3
DWGPROPS
350
BD3
  0
DICTIONARY
  5
BE2
330
FA
100
AcDbDictionary
280
     1
281
     1
  3
ACAD_MTEXT_RT
360
BE3
  0
DICTIONARY
  5
BE4
330
10A
100
AcDbDictionary
280
     1
281
     1
  3
ACAD_MTEXT_RT
360
BE5
  0
DICTIONARY
  5
BE6
330
12B
100
AcDbDictionary
280
     1
281
     1
  3
ACAD_MTEXT_RT
360
BE7
  0
DICTIONARY
  5
30
102
{ACAD_REACTORS
330
C
102
}
330
C
100
AcDbDictionary
281
     1
  0
DICTIONARY
  5
D
102
{ACAD_REACTORS
330
C
102
}
330
C
100
AcDbDictionary
281
     1
  0
DICTIONARY
  5
2F
102
{ACAD_REACTORS
330
C
102
}
330
C
100
AcDbDictionary
281
     1
  3
Layout1
350
36
  3
Layout2
350
3E
  3
Model
350
3A
  0
DICTIONARY
  5
10
102
{ACAD_REACTORS
330
C
102
}
330
C
100
AcDbDictionary
281
     1
  3
ByBlock
350
12
  3
ByLayer
350
11
  3
Global
350
13
  0
DICTIONARY
  5
2C
102
{ACAD_REACTORS
330
C
102
}
330
C
100
AcDbDictionary
281
     1
  3
Standard
350
2D
  0
DICTIONARY
  5
2E
102
{ACAD_REACTORS
330
C
102
}
330
C
100
AcDbDictionary
281
     1
  0
ACDBDICTIONARYWDFLT
  5
E
102
{ACAD_REACTORS
330
C
102
}
330
C
100
AcDbDictionary
281
     1
  3
Normal
350
F
100
AcDbDictionaryWithDefault
340
F
  0
DICTIONARY
  5
31
102
{ACAD_REACTORS
330
C
102
}
330
C
100
AcDbDictionary
281
     1
  3
Standard
350
32
  0
DICTIONARY
  5
14
102
{ACAD_REACTORS
330
C
102
}
330
C
100
AcDbDictionary
281
     1
  3
2dWireframe
350
1A
  3
3D Hidden
350
1C
  3
3dWireframe
350
1B
  3
Basic
350
19
  3
Brighten
350
20
  3
ColorChange
350
24
  3
Conceptual
350
1D
  3
Dim
350
1F
  3
Facepattern
350
23
  3
Flat
350
15
  3
FlatWithEdges
350
16
  3
Gouraud
350
17
  3
GouraudWithEdges
350
18
  3
Linepattern
350
22
  3
Realistic
350
1E
  3
Thicken
350
21
  0
DICTIONARY
  5
BCD
102
{ACAD_REACTORS
330
C
102
}
330
C
100
AcDbDictionary
281
     1
  3
CTABLESTYLE
350
BCE
  3
DIMASSOC
350
BD2
  3
HIDETEXT
350
BD1
  3
INDEXCTL
350
BD0
  3
SORTENTS
350
BCF
  0
XRECORD
  5
BD3
102
{ACAD_REACTORS
330
C
102
}
330
C
100
AcDbXrecord
280
     1
  1
DWGPROPS COOKIE
  2

  3

  4
bräunlich
  6

  7

  8

  9

300
Manager=
301
Firma=
302
Kategorie=
303
Bauteilnummer=MZFV 25 L220
304
Bezeichnung=
305
Projekt=
306
Konstrukteur=bräunlich
307
Ingenieur=
308
Bevollmächtigter=
309
Kostenstelle=
 40
0.000068900462963
 41
2454113.49683309
 42
2454113.49683309
  1

 90
       22
300
Zulieferer=
300
Benutzerstatus=
300
Konstruktionsstatus=InBearbeitung
300
Kontrolliert von=
300
Konstruktion genehmigt von=
300
Fertigung genehmigt von=
300
FirstViewScale:1=1:1
300
SaveDate=08/30/2006
300
SaveTime=14:09
300
PaperSize=A4
300
AllViewScales=1:1
300
FirstViewScale=1:1
  0
XRECORD
  5
BE3
102
{ACAD_REACTORS
330
BE2
102
}
330
BE2
100
AcDbXrecord
280
     1
 40
45260.0
  1
Für spanlose Bearbeitung
  0
XRECORD
  5
BE5
102
{ACAD_REACTORS
330
BE4
102
}
330
BE4
100
AcDbXrecord
280
     1
 40
49954.0
  1
Alle nicht bemaßten Radien R
  0
XRECORD
  5
BE7
102
{ACAD_REACTORS
330
BE6
102
}
330
BE6
100
AcDbXrecord
280
     1
 40
53914.0
  1
Werkstückkanten\Pnach ISO 13715
  0
LAYOUT
  5
36
102
{ACAD_XDICTIONARY
360
BDC
102
}
102
{ACAD_REACTORS
330
2F
102
}
330
2F
100
AcDbPlotSettings
  1

  2

  4

  6

 40
0.0
 41
0.0
 42
0.0
 43
0.0
 44
0.0
 45
0.0
 46
0.0
 47
0.0
 48
0.0
 49
0.0
140
0.0
141
0.0
142
1.0
143
1.0
 70
   688
 72
     0
 73
     0
 74
     5
  7

 75
    16
147
1.0
148
0.0
149
0.0
100
AcDbLayout
  1
Layout1
 70
     1
 71
     1
 10
0.0
 20
0.0
 11
12.0
 21
9.0
 12
0.0
 22
0.0
 32
0.0
 14
0.0
 24
0.0
 34
0.0
 15
0.0
 25
0.0
 35
0.0
146
0.0
 13
0.0
 23
0.0
 33
0.0
 16
1.0
 26
0.0
 36
0.0
 17
0.0
 27
1.0
 37
0.0
 76
     0
330
33
  0
LAYOUT
  5
3E
102
{ACAD_XDICTIONARY
360
BE0
102
}
102
{ACAD_REACTORS
330
2F
102
}
330
2F
100
AcDbPlotSettings
  1

  2

  4

  6

 40
0.0
 41
0.0
 42
0.0
 43
0.0
 44
0.0
 45
0.0
 46
0.0
 47
0.0
 48
0.0
 49
0.0
140
0.0
141
0.0
142
1.0
143
1.0
 70
   688
 72
     0
 73
     0
 74
     5
  7

 75
    16
147
1.0
148
0.0
149
0.0
100
AcDbLayout
  1
Layout2
 70
     1
 71
     2
 10
0.0
 20
0.0
 11
12.0
 21
9.0
 12
0.0
 22
0.0
 32
0.0
 14
0.0
 24
0.0
 34
0.0
 15
0.0
 25
0.0
 35
0.0
146
0.0
 13
0.0
 23
0.0
 33
0.0
 16
1.0
 26
0.0
 36
0.0
 17
0.0
 27
1.0
 37
0.0
 76
     0
330
3B
  0
LAYOUT
  5
3A
102
{ACAD_XDICTIONARY
360
BDE
102
}
102
{ACAD_REACTORS
330
2F
102
}
330
2F
100
AcDbPlotSettings
  1

  2

  4

  6

 40
0.0
 41
0.0
 42
0.0
 43
0.0
 44
0.0
 45
0.0
 46
0.0
 47
0.0
 48
0.0
 49
0.0
140
0.0
141
0.0
142
1.0
143
1.0
 70
  1712
 72
     0
 73
     0
 74
     0
  7

 75
     0
147
1.0
148
0.0
149
0.0
100
AcDbLayout
  1
Model
 70
     1
 71
     0
 10
0.0
 20
0.0
 11
12.0
 21
9.0
 12
0.0
 22
0.0
 32
0.0
 14
0.0
 24
0.0
 34
0.0
 15
0.0
 25
0.0
 35
0.0
146
0.0
 13
0.0
 23
0.0
 33
0.0
 16
1.0
 26
0.0
 36
0.0
 17
0.0
 27
1.0
 37
0.0
 76
     0
330
37
  0
MATERIAL
  5
12
102
{ACAD_XDICTIONARY
360
BD6
102
}
102
{ACAD_REACTORS
330
10
102
}
330
10
100
AcDbMaterial
  1
ByBlock
  0
MATERIAL
  5
11
102
{ACAD_XDICTIONARY
360
BD4
102
}
102
{ACAD_REACTORS
330
10
102
}
330
10
100
AcDbMaterial
  1
ByLayer
  0
MATERIAL
  5
13
102
{ACAD_XDICTIONARY
360
BD8
102
}
102
{ACAD_REACTORS
330
10
102
}
330
10
100
AcDbMaterial
  1
Global
  0
MLINESTYLE
  5
2D
102
{ACAD_REACTORS
330
2C
102
}
330
2C
100
AcDbMlineStyle
  2
STANDARD
 70
     0
  3

 62
   256
 51
90.0
 52
90.0
 71
     2
 49
0.5
 62
   256
  6
BYLAYER
 49
-0.5
 62
   256
  6
BYLAYER
  0
ACDBPLACEHOLDER
  5
F
102
{ACAD_REACTORS
330
E
102
}
330
E
  0
TABLESTYLE
  5
32
102
{ACAD_XDICTIONARY
360
BDA
102
}
102
{ACAD_REACTORS
330
31
102
}
330
31
100
AcDbTableStyle
  3
Standard
 70
     0
 71
     0
 40
0.06
 41
0.06
280
     0
281
     0
  7
Standard
140
0.18
170
     2
 62
     0
 63
     7
283
     0
274
    -2
284
     1
 64
     0
275
    -2
285
     1
 65
     0
276
    -2
286
     1
 66
     0
277
    -2
287
     1
 67
     0
278
    -2
288
     1
 68
     0
279
    -2
289
     1
 69
     0
  7
Standard
140
0.25
170
     5
 62
     0
 63
     7
283
     0
274
    -2
284
     1
 64
     0
275
    -2
285
     1
 65
     0
276
    -2
286
     1
 66
     0
277
    -2
287
     1
 67
     0
278
    -2
288
     1
 68
     0
279
    -2
289
     1
 69
     0
  7
Standard
140
0.18
170
     5
 62
     0
 63
     7
283
     0
274
    -2
284
     1
 64
     0
275
    -2
285
     1
 65
     0
276
    -2
286
     1
 66
     0
277
    -2
287
     1
 67
     0
278
    -2
288
     1
 68
     0
279
    -2
289
     1
 69
     0
  0
VISUALSTYLE
  5
1A
102
{ACAD_REACTORS
330
14
102
}
330
14
100
AcDbVisualStyle
  2
2dWireframe
 70
     4
 71
     0
 72
     2
 73
     0
 90
        0
 40
-0.6
 41
-30.0
 62
     5
 63
     7
 74
     1
 91
        4
 64
     7
 65
   257
 75
     1
175
     1
 42
1.0
 92
        0
 66
   257
 43
1.0
 76
     1
 77
     6
 78
     2
 67
     7
 79
     5
170
     0
171
     0
290
     0
174
     0
 93
        1
 44
0.0
173
     0
291
     0
 45
0.0
1001
ACAD
1000
AcDbSavedByObjectVersion
1070
     0
  0
VISUALSTYLE
  5
1C
102
{ACAD_REACTORS
330
14
102
}
330
14
100
AcDbVisualStyle
  2
3D Hidden
 70
     6
 71
     1
 72
     2
 73
     2
 90
        0
 40
-0.6
 41
-30.0
 62
     5
 63
     7
 74
     2
 91
        2
 64
     7
 65
   257
 75
     2
175
     1
 42
40.0
 92
        0
 66
   257
 43
1.0
 76
     1
 77
     6
 78
     2
 67
     7
 79
     3
170
     0
171
     0
290
     0
174
     0
 93
        1
 44
0.0
173
     0
291
     0
 45
0.0
1001
ACAD
1000
AcDbSavedByObjectVersion
1070
     0
  0
VISUALSTYLE
  5
1B
102
{ACAD_REACTORS
330
14
102
}
330
14
100
AcDbVisualStyle
  2
3dWireframe
 70
     5
 71
     0
 72
     2
 73
     0
 90
        0
 40
-0.6
 41
-30.0
 62
     5
 63
     7
 74
     1
 91
        4
 64
     7
 65
   257
 75
     1
175
     1
 42
1.0
 92
        0
 66
   257
 43
1.0
 76
     1
 77
     6
 78
     2
 67
     7
 79
     5
170
     0
171
     0
290
     0
174
     0
 93
        1
 44
0.0
173
     0
291
     0
 45
0.0
1001
ACAD
1000
AcDbSavedByObjectVersion
1070
     0
  0
VISUALSTYLE
  5
19
102
{ACAD_REACTORS
330
14
102
}
330
14
100
AcDbVisualStyle
  2
Basic
 70
     7
 71
     1
 72
     0
 73
     1
 90
        0
 40
-0.6
 41
-30.0
 62
     5
 63
     7
 74
     0
 91
        4
 64
     7
 65
   257
 75
     1
175
     1
 42
1.0
 92
        8
 66
     7
 43
1.0
 76
     1
 77
     6
 78
     2
 67
     7
 79
     5
170
     0
171
     0
290
     0
174
     0
 93
        1
 44
0.0
173
     0
291
     1
 45
0.0
1001
ACAD
1000
AcDbSavedByObjectVersion
1070
     0
  0
VISUALSTYLE
  5
20
102
{ACAD_REACTORS
330
14
102
}
330
14
100
AcDbVisualStyle
  2
Brighten
 70
    12
 71
     2
 72
     2
 73
     0
 90
        0
 40
-0.6
 41
-30.0
 62
     5
 63
     7
 74
     1
 91
        4
 64
     7
 65
   257
 75
     1
175
     1
 42
1.0
 92
        8
 66
     7
 43
1.0
 76
     1
 77
     6
 78
     2
 67
     7
 79
     5
170
     0
171
     0
290
     0
174
     0
 93
        1
 44
50.0
173
     0
291
     1
 45
0.0
1001
ACAD
1000
AcDbSavedByObjectVersion
1070
     0
  0
VISUALSTYLE
  5
24
102
{ACAD_REACTORS
330
14
102
}
330
14
100
AcDbVisualStyle
  2
ColorChange
 70
    16
 71
     2
 72
     2
 73
     3
 90
        0
 40
-0.6
 41
-30.0
 62
     5
 63
     8
 74
     1
 91
        4
 64
     7
 65
   257
 75
     1
175
     1
 42
1.0
 92
        8
 66
     8
 43
1.0
 76
     1
 77
     6
 78
     2
 67
     7
 79
     5
170
     0
171
     0
290
     0
174
     0
 93
        1
 44
0.0
173
     0
291
     1
 45
0.0
1001
ACAD
1000
AcDbSavedByObjectVersion
1070
     0
  0
VISUALSTYLE
  5
1D
102
{ACAD_REACTORS
330
14
102
}
330
14
100
AcDbVisualStyle
  2
Conceptual
 70
     9
 71
     3
 72
     2
 73
     0
 90
        0
 40
-0.6
 41
-30.0
 62
     5
 63
     7
 74
     2
 91
        2
 64
     7
 65
   257
 75
     1
175
     1
 42
40.0
 92
        8
 66
     7
 43
1.0
 76
     1
 77
     6
 78
     2
 67
     7
 79
     3
170
     0
171
     0
290
     0
174
     0
 93
        1
 44
0.0
173
     0
291
     0
 45
0.0
1001
ACAD
1000
AcDbSavedByObjectVersion
1070
     0
  0
VISUALSTYLE
  5
1F
102
{ACAD_REACTORS
330
14
102
}
330
14
100
AcDbVisualStyle
  2
Dim
 70
    11
 71
     2
 72
     2
 73
     0
 90
        0
 40
-0.6
 41
-30.0
 62
     5
 63
     7
 74
     1
 91
        4
 64
     7
 65
   257
 75
     1
175
     1
 42
1.0
 92
        8
 66
     7
 43
1.0
 76
     1
 77
     6
 78
     2
 67
     7
 79
     5
170
     0
171
     0
290
     0
174
     0
 93
        1
 44
-50.0
173
     0
291
     1
 45
0.0
1001
ACAD
1000
AcDbSavedByObjectVersion
1070
     0
  0
VISUALSTYLE
  5
23
102
{ACAD_REACTORS
330
14
102
}
330
14
100
AcDbVisualStyle
  2
Facepattern
 70
    15
 71
     2
 72
     2
 73
     0
 90
        0
 40
-0.6
 41
-30.0
 62
     5
 63
     7
 74
     1
 91
        4
 64
     7
 65
   257
 75
     1
175
     1
 42
1.0
 92
        8
 66
     7
 43
1.0
 76
     1
 77
     6
 78
     2
 67
     7
 79
     5
170
     0
171
     0
290
     0
174
     0
 93
        1
 44
0.0
173
     0
291
     1
 45
0.0
1001
ACAD
1000
AcDbSavedByObjectVersion
1070
     0
  0
VISUALSTYLE
  5
15
102
{ACAD_REACTORS
330
14
102
}
330
14
100
AcDbVisualStyle
  2
Flat
 70
     0
 71
     2
 72
     1
 73
     1
 90
        2
 40
-0.6
 41
30.0
 62
     5
 63
     7
 74
     0
 91
        4
 64
     7
 65
   257
 75
     1
175
     1
 42
1.0
 92
        8
 66
     7
 43
1.0
 76
     1
 77
     6
 78
     2
 67
     7
 79
     5
170
     0
171
     0
290
     0
174
     0
 93
       13
 44
0.0
173
     0
291
     1
 45
0.0
1001
ACAD
1000
AcDbSavedByObjectVersion
1070
     0
  0
VISUALSTYLE
  5
16
102
{ACAD_REACTORS
330
14
102
}
330
14
100
AcDbVisualStyle
  2
FlatWithEdges
 70
     1
 71
     2
 72
     1
 73
     1
 90
        2
 40
-0.6
 41
30.0
 62
     5
 63
     7
 74
     1
 91
        4
 64
     7
 65
   257
 75
     1
175
     1
 42
1.0
 92
        0
 66
   257
 43
1.0
 76
     1
 77
     6
 78
     2
 67
     7
 79
     5
170
     0
171
     0
290
     0
174
     0
 93
       13
 44
0.0
173
     0
291
     1
 45
0.0
1001
ACAD
1000
AcDbSavedByObjectVersion
1070
     0
  0
VISUALSTYLE
  5
17
102
{ACAD_REACTORS
330
14
102
}
330
14
100
AcDbVisualStyle
  2
Gouraud
 70
     2
 71
     2
 72
     2
 73
     1
 90
        2
 40
-0.6
 41
30.0
 62
     5
 63
     7
 74
     0
 91
        4
 64
     7
 65
   257
 75
     1
175
     1
 42
1.0
 92
        0
 66
     7
 43
1.0
 76
     1
 77
     6
 78
     2
 67
     7
 79
     5
170
     0
171
     0
290
     0
174
     0
 93
       13
 44
0.0
173
     0
291
     1
 45
0.0
1001
ACAD
1000
AcDbSavedByObjectVersion
1070
     0
  0
VISUALSTYLE
  5
18
102
{ACAD_REACTORS
330
14
102
}
330
14
100
AcDbVisualStyle
  2
GouraudWithEdges
 70
     3
 71
     2
 72
     2
 73
     1
 90
        2
 40
-0.6
 41
30.0
 62
     5
 63
     7
 74
     1
 91
        4
 64
     7
 65
   257
 75
     1
175
     1
 42
1.0
 92
        0
 66
   257
 43
1.0
 76
     1
 77
     6
 78
     2
 67
     7
 79
     5
170
     0
171
     0
290
     0
174
     0
 93
       13
 44
0.0
173
     0
291
     1
 45
0.0
1001
ACAD
1000
AcDbSavedByObjectVersion
1070
     0
  0
VISUALSTYLE
  5
22
102
{ACAD_REACTORS
330
14
102
}
330
14
100
AcDbVisualStyle
  2
Linepattern
 70
    14
 71
     2
 72
     2
 73
     0
 90
        0
 40
-0.6
 41
-30.0
 62
     5
 63
     7
 74
     1
 91
        4
 64
     7
 65
   257
 75
     7
175
     7
 42
1.0
 92
        8
 66
     7
 43
1.0
 76
     1
 77
     6
 78
     2
 67
     7
 79
     5
170
     0
171
     0
290
     0
174
     0
 93
        1
 44
0.0
173
     0
291
     1
 45
0.0
1001
ACAD
1000
AcDbSavedByObjectVersion
1070
     0
  0
VISUALSTYLE
  5
1E
102
{ACAD_REACTORS
330
14
102
}
330
14
100
AcDbVisualStyle
  2
Realistic
 70
     8
 71
     2
 72
     2
 73
     0
 90
        0
 40
-0.6
 41
-30.0
 62
     5
 63
     7
 74
     1
 91
        0
 64
     7
 65
   257
 75
     1
175
     1
 42
1.0
 92
        8
 66
     8
 43
1.0
 76
     1
 77
     6
 78
     2
 67
     7
 79
     5
170
     0
171
     0
290
     0
174
     0
 93
       13
 44
0.0
173
     0
291
     0
 45
0.0
1001
ACAD
1000
AcDbSavedByObjectVersion
1070
     0
  0
VISUALSTYLE
  5
21
102
{ACAD_REACTORS
330
14
102
}
330
14
100
AcDbVisualStyle
  2
Thicken
 70
    13
 71
     2
 72
     2
 73
     0
 90
        0
 40
-0.6
 41
-30.0
 62
     5
 63
     7
 74
     1
 91
        4
 64
     7
 65
   257
 75
     1
175
     1
 42
1.0
 92
       12
 66
     7
 43
1.0
 76
     1
 77
     6
 78
     2
 67
     7
 79
     5
170
     0
171
     0
290
     0
174
     0
 93
        1
 44
0.0
173
     0
291
     1
 45
0.0
1001
ACAD
1000
AcDbSavedByObjectVersion
1070
     0
  0
DICTIONARYVAR
  5
BCE
102
{ACAD_REACTORS
330
BCD
102
}
330
BCD
100
DictionaryVariables
280
     0
  1
STANDARD
  0
DICTIONARYVAR
  5
BD2
102
{ACAD_REACTORS
330
BCD
102
}
330
BCD
100
DictionaryVariables
280
     0
  1
1
  0
DICTIONARYVAR
  5
BD1
102
{ACAD_REACTORS
330
BCD
102
}
330
BCD
100
DictionaryVariables
280
     0
  1
1
  0
DICTIONARYVAR
  5
BD0
102
{ACAD_REACTORS
330
BCD
102
}
330
BCD
100
DictionaryVariables
280
     0
  1
0
  0
DICTIONARYVAR
  5
BCF
102
{ACAD_REACTORS
330
BCD
102
}
330
BCD
100
DictionaryVariables
280
     0
  1
127
  0
DICTIONARY
  5
BDC
330
36
100
AcDbDictionary
280
     1
281
     1
  3
ACAD_XREC_ROUNDTRIP
360
BDD
  0
DICTIONARY
  5
BE0
330
3E
100
AcDbDictionary
280
     1
281
     1
  3
ACAD_XREC_ROUNDTRIP
360
BE1
  0
DICTIONARY
  5
BDE
330
3A
100
AcDbDictionary
280
     1
281
     1
  3
ACAD_XREC_ROUNDTRIP
360
BDF
  0
DICTIONARY
  5
BD6
330
12
100
AcDbDictionary
280
     1
281
     1
  3
ACAD_XREC_ROUNDTRIP
360
BD7
  0
DICTIONARY
  5
BD4
330
11
100
AcDbDictionary
280
     1
281
     1
  3
ACAD_XREC_ROUNDTRIP
360
BD5
  0
DICTIONARY
  5
BD8
330
13
100
AcDbDictionary
280
     1
281
     1
  3
ACAD_XREC_ROUNDTRIP
360
BD9
  0
DICTIONARY
  5
BDA
330
32
100
AcDbDictionary
280
     1
281
     1
  3
ACAD_XREC_ROUNDTRIP
360
BDB
  0
XRECORD
  5
BDD
102
{ACAD_REACTORS
330
BDC
102
}
330
BDC
100
AcDbXrecord
280
     1
102
SHADEPLOT
 70
     0
102
SHADEPLOTRESLEVEL
 70
     2
102
SHADEPLOTCUSTOMDPI
 70
   300
  0
XRECORD
  5
BE1
102
{ACAD_REACTORS
330
BE0
102
}
330
BE0
100
AcDbXrecord
280
     1
102
SHADEPLOT
 70
     0
102
SHADEPLOTRESLEVEL
 70
     2
102
SHADEPLOTCUSTOMDPI
 70
   300
  0
XRECORD
  5
BDF
102
{ACAD_REACTORS
330
BDE
102
}
330
BDE
100
AcDbXrecord
280
     1
102
SHADEPLOT
 70
     0
102
SHADEPLOTRESLEVEL
 70
     2
102
SHADEPLOTCUSTOMDPI
 70
   300
  0
XRECORD
  5
BD7
102
{ACAD_REACTORS
330
BD6
102
}
330
BD6
100
AcDbXrecord
280
     1
102
MATERIAL
148
0.0
149
0.0
149
0.0
 93
        0
 94
       63
282
     0
 72
     1
 77
     1
171
     1
175
     1
179
     1
273
     0
  0
XRECORD
  5
BD5
102
{ACAD_REACTORS
330
BD4
102
}
330
BD4
100
AcDbXrecord
280
     1
102
MATERIAL
148
0.0
149
0.0
149
0.0
 93
        0
 94
       63
282
     0
 72
     1
 77
     1
171
     1
175
     1
179
     1
273
     0
  0
XRECORD
  5
BD9
102
{ACAD_REACTORS
330
BD8
102
}
330
BD8
100
AcDbXrecord
280
     1
102
MATERIAL
148
0.0
149
0.0
149
0.0
 93
        0
 94
       63
282
     0
 72
     1
 77
     1
171
     1
175
     1
179
     1
273
     0
  0
XRECORD
  5
BDB
102
{ACAD_REACTORS
330
BDA
102
}
330
BDA
100
AcDbXrecord
280
     1
102
ACAD_ROUNDTRIP_PRE2007_TABLESTYLE
 90
      512
 91
        0
  1

 92
      512
 93
        0
  2

 94
      512
 95
        0
  3

  0
ENDSEC
  0
EOF
